<?xml version="1.0" standalone="no"?>
<!DOCTYPE svg PUBLIC "-//W3C//DTD SVG 1.1//EN" "http://www.w3.org/Graphics/SVG/1.1/DTD/svg11.dtd" >
<svg>
<metadata>
Created by FontForge 20090622 at Mon Aug 29 13:31:15 2016
 By deploy user
Sunrise International (Capitals) Typeface &#194;&#169; The Branded Quotes 2016 All Rights Reserved.
</metadata>
<defs>
<font id="SunriseInternational" horiz-adv-x="1014" >
  <font-face 
    font-family="Sunrise International"
    font-weight="400"
    font-stretch="normal"
    units-per-em="2048"
    panose-1="2 0 5 0 0 0 0 0 0 0"
    ascent="1638"
    descent="-410"
    x-height="1408"
    cap-height="1468"
    bbox="-5664 -448 1654 1646"
    underline-thickness="150"
    underline-position="-142"
    unicode-range="U+001D-U+F002"
  />
<missing-glyph horiz-adv-x="1024" 
 />
    <glyph glyph-name=".notdef" horiz-adv-x="1024" 
 />
    <glyph glyph-name=".null" horiz-adv-x="0" 
 />
    <glyph glyph-name=".null" horiz-adv-x="0" 
 />
    <glyph glyph-name="nonmarkingreturn" horiz-adv-x="508" 
 />
    <glyph glyph-name="space" unicode=" " horiz-adv-x="508" 
 />
    <glyph glyph-name="space" unicode="&#xa0;" horiz-adv-x="508" 
 />
    <glyph glyph-name="exclam" unicode="!" horiz-adv-x="384" 
d="M129 1598h80q125 0 140 -80q16 -36 16 -56v-4q0 -17 -12 -84l12 -36q-8 -54 -8 -80q8 -48 8 -76v-40q0 -34 -8 -84q3 -16 8 -16l-4 -28v-76q0 -43 -28 -88q0 -75 -32 -88q15 0 48 -240v-24q-8 -108 -40 -108q-86 -24 -152 -24q-59 0 -88 84l-4 24q4 176 8 244l-12 88
q0 67 12 212v64q0 10 8 36q-8 28 -8 48q16 106 16 120q-4 74 -4 92q8 66 8 104v20q0 23 -4 64q1 15 40 32zM241 298q128 -15 128 -80q4 0 4 -24q-16 -45 -16 -52q4 -28 4 -32q0 -28 -32 -60q0 -56 -160 -76h-28q-120 13 -120 80q-8 18 -8 40q30 152 40 152q134 52 188 52z
" />
    <glyph glyph-name="quotedbl" unicode="&#x22;" horiz-adv-x="579" 
d="M411 1523q119 -7 119 -27q11 -29 37 -212q-11 -78 -11 -143q7 -81 7 -97v-3q0 -82 -48 -112l-22 -4h-4q-4 0 -4 4l-29 -8q-36 11 -60 11h-25q-53 0 -64 213q19 210 19 262q-11 25 -11 54q0 24 96 62zM155 1504q85 0 101 -62q14 -36 14 -66v-61q0 -31 -3 -74
q37 -152 37 -258q-37 -66 -86 -66q-12 8 -22 8h-26q-107 4 -107 50q-10 31 -34 174v15q0 50 4 77q-4 27 -4 77v12q0 16 4 42q-11 38 -11 70q0 54 115 62h18z" />
    <glyph glyph-name="numbersign" unicode="#" horiz-adv-x="1336" 
d="M480 1424h16q104 0 104 -108q-4 -35 -4 -40q12 -47 12 -60l-12 -40v-48h36q19 0 64 8q10 0 60 -8q32 8 68 8h4q11 48 20 140q14 100 40 100q19 40 68 40q91 0 108 -84v-48q0 -9 -4 -16q12 -32 12 -60v-4q0 -7 -12 -36q2 -48 8 -48q4 -4 48 -8q20 0 60 4q44 -4 76 -4l28 4
q80 -48 80 -88v-36q0 -88 -124 -88q-33 -20 -52 -20q-9 0 -44 4q-28 -8 -48 -8q-29 0 -52 8q-37 0 -44 -88q-13 -19 -24 -152q-5 0 -12 -44q4 0 4 4q8 0 132 -24l8 4h116q53 0 72 -44q24 -14 24 -48v-20q0 -94 -44 -108q0 -10 -80 -16q-34 8 -44 8v-4q-89 24 -200 24
q0 4 -16 4v-4q0 -46 -12 -92q4 -56 4 -96v-48q-11 -128 -68 -128q-19 -4 -52 -4h-12q-65 0 -108 76v4q0 34 24 204q-4 70 -4 84h-4q-40 0 -100 4q-113 -9 -136 -24l-8 -76q0 -47 12 -100q-8 -92 -8 -124q-26 -40 -76 -40q-76 -20 -96 -20q-50 0 -68 56q0 17 -4 32h4
q0 4 -4 4q0 19 28 220q0 56 -24 56h-8q-14 -8 -36 -8q-49 19 -128 32q-48 35 -48 88q0 64 44 88q5 0 40 24q17 0 32 -4l64 4q64 -4 76 -4q16 0 28 96l-4 20v4q16 98 24 192q-80 -24 -164 -24q-92 0 -92 104l-4 36q0 35 56 88q17 8 64 8q43 0 112 -4q84 12 84 28
q12 46 20 136q4 0 12 60q-4 21 -4 40v4q0 48 92 48zM516 764v-32q0 -23 -20 -120h4l24 4q14 0 76 -8q64 4 76 4q36 -8 52 -8h4q13 0 20 152q12 0 16 152q-27 0 -72 -8q-61 8 -124 8q-25 0 -36 -72q0 -15 -20 -72z" />
    <glyph glyph-name="dollar" unicode="$" horiz-adv-x="674" 
d="M372 1547h24q40 0 40 -60q-24 -58 -24 -152q0 -32 24 -32q149 0 224 -204q-19 -80 -52 -80q0 -9 -48 -16h-4q-92 26 -92 52q-50 91 -68 108l-20 4h-4q0 -35 -40 -72l-8 -12q0 -16 40 -72q0 -30 44 -80q38 -101 120 -224q0 -31 36 -96q24 -87 24 -120q-4 -102 -4 -120
q-3 -14 -40 -48q0 -35 -100 -80l-4 -8q8 -21 16 -112q32 -85 32 -144q0 -64 -52 -64q-88 -16 -96 -16q-63 0 -88 84q-16 30 -24 236q-139 63 -168 124q-35 63 -64 100v12q20 44 88 44q59 0 212 -96q7 0 80 -28v4l-4 8q4 27 4 44q0 62 -124 236q0 24 -96 188q0 9 -32 72
q-16 100 -16 116v16q0 79 64 172q72 54 72 76q-12 85 -12 112q0 71 84 112q47 16 56 16z" />
    <glyph glyph-name="percent" unicode="%" horiz-adv-x="813" 
d="M194 1434h60q156 0 156 -76q4 0 8 -24l-12 -64q0 -10 8 -44q-24 -91 -84 -136q-67 -40 -116 -40q-152 15 -152 36q-52 54 -52 152q15 180 84 180q0 4 4 4q22 -4 36 -4q11 0 60 16zM554 1394q132 0 152 -92q0 -12 4 -12q0 -4 -20 -96v-44q0 -9 -24 -52q0 -40 -44 -124
q0 -29 -40 -96q-11 -53 -52 -104q0 -20 -44 -92q-3 -41 -64 -168q-8 -21 -24 -96q-20 -24 -20 -64q-16 -16 -24 -16v-4q0 -27 -44 -152q-8 -121 -40 -204q0 -28 -48 -48l-36 4q-70 -4 -88 -4q-74 0 -84 72v12q0 50 84 252q0 79 68 232q0 14 60 164q0 31 44 124q0 34 76 204
q0 26 84 160q16 58 60 168q0 64 28 64q0 12 36 12zM194 1258q-8 -20 -8 -28q0 -10 12 -52h4q20 55 20 72q-11 8 -28 8zM550 438h32q31 0 96 -28l28 8l16 -8q16 8 28 8q44 -11 44 -36l-4 -48q8 -68 8 -92v-20q0 -55 -64 -140q0 -34 -128 -64h-20q-29 0 -76 32q-96 0 -96 36
q-40 60 -40 132q19 120 52 120q4 30 64 76q40 24 60 24zM546 198q6 -40 16 -40q20 16 20 32v4q0 11 -20 40h-4q-9 0 -12 -36z" />
    <glyph glyph-name="ampersand" unicode="&#x26;" horiz-adv-x="1669" 
d="M1553 1398h20q67 0 67 -83q4 0 14 -88q-5 -48 -10 -48l5 -31v-48l-24 -285q-5 0 -14 -40q5 -37 5 -61q0 -21 -43 -189v-26q0 -141 -63 -141h-33q-67 0 -67 123v9q0 56 19 193q-5 0 -72 -114q-65 -79 -106 -79h-9q-134 13 -134 40l-10 4q-65 -70 -81 -70q-144 0 -144 101
v8l19 128q-14 0 -24 -62q-53 -89 -105 -241q-34 -18 -48 -18q-130 10 -130 66v5q0 15 5 39q-5 42 -5 83l5 22l-43 -65q-27 -27 -67 -27q-60 5 -62 5q-31 -95 -149 -202q-49 -40 -96 -40q-153 0 -153 79v9q0 53 58 206q138 199 138 215q9 8 87 18q110 -9 110 -57q0 -6 48 -49
v-13h9q78 145 187 145q120 0 120 -79q78 88 115 101q64 9 67 9q72 -28 72 -97v-66l-5 -30q52 79 125 123q21 39 72 96q5 26 52 26q5 0 82 -8q12 0 72 92q19 0 52 193q18 13 34 13q-19 46 -19 57q0 9 19 74q0 8 -5 53q0 22 43 22zM1237 446h14q53 0 96 -31q0 -13 5 -13
q0 -52 -268 -109q-133 -55 -216 -57q-32 -26 -321 -62q-72 -26 -316 -48h-29q-95 0 -115 53v4q0 25 144 53q111 39 422 96q224 53 584 114z" />
    <glyph glyph-name="quotesingle" unicode="'" horiz-adv-x="323" 
d="M195 1517q54 0 70 -53q14 -73 29 -218q-4 -46 -4 -90l4 -8q-11 -36 -11 -41q11 0 22 -49q0 -62 -70 -109q-23 -10 -66 -19q-89 0 -113 60q-9 39 -22 154q-11 29 -11 98q0 10 11 117v41q0 64 40 87q59 30 121 30z" />
    <glyph glyph-name="parenleft" unicode="(" horiz-adv-x="427" 
d="M353 1620q88 0 88 -52v-16q-15 -24 -36 -116q-36 -62 -60 -168q-32 -51 -32 -144q-28 -68 -28 -124q-28 -97 -28 -192q0 -10 4 -60q0 -3 -12 -32q4 -44 4 -76q-3 -28 -12 -28q16 -30 16 -40t-4 -32q0 -155 64 -280q20 -72 48 -132q0 -92 16 -92q20 -28 20 -52v-12
q-15 -56 -96 -56q-4 0 -4 4l-28 -4h-12q-83 0 -116 96q-28 78 -64 216q-76 165 -76 428q0 366 136 720q80 157 100 216q0 15 100 24q0 4 12 4z" />
    <glyph glyph-name="parenright" unicode=")" horiz-adv-x="440" 
d="M74 1610h32q83 -63 96 -80q24 -94 56 -112q6 -12 24 -80q40 -77 40 -132q84 -217 84 -368q4 0 4 -28v-4q0 -14 -4 -36q9 -28 12 -28l-4 -8v-44q0 -34 8 -52q-9 -31 -16 -44q4 -35 4 -40q0 -6 -16 -72q4 -28 4 -32q-16 -57 -28 -120q-24 -23 -24 -72l-8 -8l4 -20v-12
q0 -38 -64 -224q-9 -88 -56 -88l-24 4q-45 -4 -84 -4q-68 15 -68 80q0 11 72 304q8 77 48 292q12 98 12 200v92q0 116 -24 208q4 8 4 12q-8 9 -16 100q-30 22 -60 216q-14 64 -80 148v12q17 40 72 40z" />
    <glyph glyph-name="asterisk" unicode="*" horiz-adv-x="696" 
d="M370 1646q50 0 61 -92q7 -70 7 -76q152 84 185 84h4q45 0 56 -69v-8q0 -69 -90 -115q-79 -52 -79 -57q4 -8 79 -35q87 -74 94 -118q0 -60 -64 -81q-65 0 -166 65q0 -73 -56 -126l-57 -23q0 8 -57 15q-45 39 -45 142q-109 -73 -181 -73q-60 22 -60 81q0 51 117 130
q56 14 56 27q-123 70 -165 130l-4 23v23q10 69 56 69h4q32 0 170 -77v23q0 94 52 119q45 19 83 19z" />
    <glyph glyph-name="plus" unicode="+" horiz-adv-x="772" 
d="M398 1310q38 0 38 -90q21 -62 21 -172l21 -126l205 -22q75 -23 75 -77q0 -61 -100 -86q0 -10 -88 -22q-6 0 -84 13v-63q21 -147 21 -217q0 -153 -59 -153q-18 -18 -180 -27q-67 42 -67 153v77q0 51 -8 122q4 68 4 140q-9 8 -150 40q-38 26 -38 45q0 55 105 86q26 5 58 5
h29q12 0 17 266q-4 8 -4 18q0 73 113 90h71z" />
    <glyph glyph-name="comma" unicode="," horiz-adv-x="459" 
d="M167 546h12q73 0 188 -56q43 -33 52 -72q28 -64 28 -104q0 -26 -32 -140q0 -71 -64 -188q-10 -76 -40 -76h-20q-116 25 -118 99q-10 28 -18 85v24q0 43 -36 56q-50 0 -96 128q-4 35 -4 44q0 176 52 176q9 0 96 24z" />
    <glyph glyph-name="hyphen" unicode="-" horiz-adv-x="782" 
d="M170 1004h8q26 0 56 -8l48 8q80 -12 108 -12h76q29 0 140 -12h52q11 0 40 -20q65 0 76 -84v-4q0 -89 -124 -156q-62 -20 -112 -20h-20q-60 0 -244 40h-12q-90 -12 -104 -12q-89 0 -136 128q-8 38 -8 60v4q0 33 80 52q66 36 76 36z" />
    <glyph glyph-name="hyphen" unicode="&#xad;" horiz-adv-x="782" 
d="M170 1004h8q26 0 56 -8l48 8q80 -12 108 -12h76q29 0 140 -12h52q11 0 40 -20q65 0 76 -84v-4q0 -89 -124 -156q-62 -20 -112 -20h-20q-60 0 -244 40h-12q-90 -12 -104 -12q-89 0 -136 128q-8 38 -8 60v4q0 33 80 52q66 36 76 36z" />
    <glyph glyph-name="period" unicode="." horiz-adv-x="422" 
d="M174 398h8q69 0 160 -56q25 -24 40 -128v-8q0 -98 -64 -136q-19 -36 -60 -36h-20q-37 0 -104 -4q-39 0 -84 76q-16 51 -20 100q4 0 8 72q0 3 -4 24q0 53 120 88q0 7 20 8z" />
    <glyph glyph-name="slash" unicode="/" horiz-adv-x="569" 
 />
    <glyph glyph-name="zero" unicode="0" horiz-adv-x="722" 
d="M374 1498q138 0 208 -120q52 -67 52 -140q8 0 16 -28q-4 -35 -4 -40q8 -15 8 -32v-28q0 -24 8 -92l-4 -16q19 0 40 -300v-56q1 -28 8 -28l-8 -64q8 -18 8 -52l-4 -40q12 -60 12 -84l-24 -148q-7 0 -8 -20v-36q0 -32 -60 -108q0 -29 -92 -52q-116 -64 -180 -64h-8
q-113 0 -232 156q-72 133 -72 264q-16 163 -24 328q-4 0 -4 20q0 260 24 388q0 78 36 188q0 37 72 168q25 12 32 12h56q71 16 144 24zM318 1186l12 -100l-8 -48q8 -78 20 -136q-4 -21 -4 -24q6 -13 16 -108q8 0 12 -124l44 -188l-4 -40v-20q0 -109 44 -224q29 -28 44 -28
l12 20v4q-52 54 -52 176q4 153 8 196q-8 46 -24 328l-24 220l4 56q-17 228 -48 228v8h-4q-44 -52 -44 -164q-4 0 -4 -32z" />
    <glyph glyph-name="one" unicode="1" horiz-adv-x="525" 
d="M305 1515q88 0 88 -28q68 -104 68 -432q4 0 4 -36q-4 -74 -4 -92l20 -232q4 0 4 -16q-4 -48 -4 -72q20 -108 20 -200q0 -20 -8 -120q4 -86 4 -120q-4 -21 -4 -24q12 -37 12 -92v-32q0 -73 -72 -96q-43 0 -72 -8q-81 24 -140 24q-52 25 -52 116q0 66 -8 100q4 54 4 92v24
q0 36 -8 68q4 27 4 44q-8 82 -8 112v88q0 85 16 156q-12 23 -12 40q0 106 20 308q-51 -48 -104 -48q-100 0 -100 32q-4 7 -4 16q0 17 36 52l148 272v32q0 33 72 72h80z" />
    <glyph glyph-name="two" unicode="2" horiz-adv-x="687" 
d="M409 1523h52q137 0 184 -96q12 -27 36 -108l-132 -484q0 -126 -104 -408q-20 -69 -24 -132q-32 -68 -32 -108v-16q51 -16 228 -48q48 -57 48 -88q-9 -46 -56 -80q-68 -20 -96 -20q-105 4 -156 4l-136 -20q-78 0 -164 80q-52 55 -52 104q20 67 24 140q56 142 72 248
q68 185 68 244q0 27 76 212q15 59 104 252q0 32 44 148h-4q-59 -50 -124 -220q-30 -48 -84 -48q-120 0 -120 48q-5 0 -8 28q0 46 96 212q49 89 172 132q67 24 88 24z" />
    <glyph glyph-name="three" unicode="3" horiz-adv-x="727" 
d="M229 1510q35 -4 44 -4q7 0 72 4q180 -27 180 -84v-20q-7 -72 -100 -204q-15 -27 -28 -84q-56 -80 -56 -96h4q158 -38 196 -92q43 0 56 -44q0 -23 44 -72q28 -21 52 -152q20 -61 20 -148v-24q0 -195 -120 -416q0 -42 -72 -84q-33 -68 -84 -68q0 -5 -72 -16q-19 4 -60 24
q-44 -4 -76 -4q-53 0 -124 88q-76 80 -76 292q0 133 -8 176q0 60 156 64q59 0 116 -56q35 -50 84 -208h4l24 248v4q0 207 -120 324q-15 8 -112 40q-104 66 -104 148q0 49 84 152q56 127 80 152l-8 -4h-52q-146 0 -168 44q-8 25 -8 40q0 32 112 44q75 28 120 36z" />
    <glyph glyph-name="four" unicode="4" horiz-adv-x="706" 
d="M339 1523q116 0 216 -80q23 -27 32 -72q48 -62 48 -144v-56q20 -59 20 -72l-20 -160q0 -32 12 -72q-12 -31 -12 -40q8 -45 8 -68q0 -10 -4 -60h4l-4 -8v-112q8 -68 8 -76v-48q0 -9 76 -24q28 -21 28 -44v-4q0 -35 -56 -64q-40 -7 -40 -36l4 -28v-272q0 -55 -96 -72
q-140 0 -140 84q0 10 8 52q-8 32 -8 76v120q0 22 -12 32l-28 -4h-28q-163 12 -240 44q-120 55 -120 128q60 248 96 376q120 383 152 540q0 20 48 144q33 20 48 20zM415 883q-32 -97 -32 -128q0 -24 -24 -64q0 -86 -56 -224h4q15 -12 100 -20q16 4 16 24v20q0 36 -8 68
q4 74 4 132q0 51 -8 76q8 32 8 76v40h-4z" />
    <glyph glyph-name="five" unicode="5" horiz-adv-x="701" 
d="M409 1516q116 0 116 -52q-35 -72 -144 -72q-57 8 -80 8h-8l-4 -16l8 -32q-4 -59 -4 -80q0 -18 4 -88q-4 -27 -4 -44q0 -31 128 -52q157 -69 212 -176q0 -25 20 -44q4 -7 4 -20q-8 -44 -8 -48q40 -51 40 -80v-112q0 -17 -20 -56q12 -20 12 -40v-4q0 -13 -24 -72
q0 -44 -44 -236q0 -113 -104 -244q-41 -24 -128 -24q0 -8 -44 -8q-132 28 -180 88q-72 83 -72 188v68q-20 129 -20 224q15 43 136 52q104 0 104 -136q7 0 36 -140h4q28 161 28 244q0 72 -28 236q0 68 -96 164q-42 20 -152 56q-80 37 -80 184q-4 0 -4 8q28 225 28 256v24
q0 38 84 48q134 28 284 28z" />
    <glyph glyph-name="six" unicode="6" horiz-adv-x="644" 
d="M379 1515q181 -4 224 -132v-8q-4 -8 -4 -12q21 0 24 -36q0 -16 -12 -64q20 -89 20 -148q0 -91 -28 -112q-36 -16 -64 -16q-53 0 -136 36q-46 34 -56 68q4 52 4 84l-24 88h-4q-36 -168 -36 -264q0 -4 4 -4l-4 -40v-44q0 -9 152 -20q59 -14 104 -84q28 -64 40 -132
q28 -22 28 -100q24 -137 24 -152v-60q-14 -224 -36 -224l-24 -88q-20 0 -36 -76q-56 -56 -92 -56q-48 -4 -108 -4h-24q-106 0 -140 88q-103 139 -108 176q-19 23 -28 184q-20 48 -20 128q0 64 4 144q-4 34 -4 52q7 69 12 72l-4 40v40q16 119 44 388q22 122 76 188
q58 100 180 100h52zM287 735v-8q4 -50 4 -52q-16 -84 -16 -120v-28q16 -95 16 -112l-4 -16h4q-12 -52 -24 -172q13 -132 44 -132q0 32 4 32q0 4 -4 4q24 164 24 224v60q0 4 4 4l-4 8q0 186 -44 308h-4z" />
    <glyph glyph-name="seven" unicode="7" horiz-adv-x="668" 
d="M229 1518q80 -4 80 -12l40 4h76q117 -24 132 -24q77 0 88 -68q4 -7 4 -20q0 -42 -48 -128q0 -131 -136 -460q-36 -215 -76 -496q-20 -42 -28 -156q-28 -48 -36 -104q0 -5 -36 -48q0 -39 -60 -56l-40 4q-66 -16 -84 -16q-46 0 -80 60q-12 50 -12 64q68 396 88 484
q32 97 104 400q56 184 96 352q16 29 16 52v8q-36 0 -228 48q-52 0 -52 40q0 57 192 72z" />
    <glyph glyph-name="eight" unicode="8" horiz-adv-x="667" 
d="M244 1508h48q49 0 136 -52q38 0 112 -100q52 -87 52 -172q0 -29 -12 -72l4 -24q0 -19 -40 -92q0 -53 -56 -152v-12q29 -47 56 -64q0 -7 44 -48l56 -148q8 -57 8 -80q0 -7 -8 -20q12 -20 12 -40v-8q-17 -236 -32 -236q-79 -192 -148 -192q-31 -36 -76 -36l-76 16
q-12 0 -76 -4l-44 16q-28 -8 -48 -8q-54 0 -116 116q-40 78 -40 200v4q0 282 188 516q0 8 8 28q-54 98 -104 152q-84 151 -84 268q0 41 32 172q19 28 64 28v-4q55 40 140 48zM232 1396q4 -21 4 -24q-12 -78 -12 -108q38 -132 72 -152q8 -21 8 -24q28 28 28 60q-16 64 -16 76
q0 13 8 56q-35 120 -80 120q-8 -4 -12 -4zM204 332q2 -65 40 -184q35 41 40 76v24q16 108 16 152v72q0 58 -20 152q-28 -30 -64 -188q-8 -42 -12 -104z" />
    <glyph glyph-name="nine" unicode="9" horiz-adv-x="692" 
d="M396 1515q198 0 244 -308q0 -59 24 -100q8 -16 8 -28q-4 -41 -4 -48l12 -64q-4 -38 -8 -44q4 -35 4 -44q-4 -98 -4 -108q12 -56 12 -92v-44q0 -53 -24 -180q-10 -268 -44 -268q-40 -29 -40 -48q0 -53 -92 -140q-8 0 -196 -76l-48 -8q-114 0 -200 216q-20 78 -20 156v200
q0 30 60 40q9 0 44 4q77 0 100 -32q64 -95 64 -188q56 -101 56 -124h4q0 12 4 12q-8 50 -8 80q12 79 16 284q5 0 16 88q-4 22 -4 44h-24q-51 16 -200 44q-56 89 -56 120v44q-16 107 -16 148v40q0 207 124 356q90 68 196 68zM252 927v-12q0 -84 48 -84h28q60 7 60 48
q0 40 -4 96q12 63 12 104v36q0 84 -40 252q-19 0 -56 -164q0 -108 -36 -132q-12 -79 -12 -144z" />
    <glyph glyph-name="colon" unicode=":" horiz-adv-x="374" 
d="M154 1296h8q69 0 160 -56q25 -24 40 -128v-8q0 -98 -64 -136q-19 -36 -60 -36h-20q-37 0 -104 -4q-39 0 -84 76q-12 35 -20 100q4 0 8 72q0 3 -4 24q0 53 120 88q0 7 20 8zM154 368h8q69 0 160 -56q25 -24 40 -128v-8q0 -98 -64 -136q-19 -36 -60 -36h-20q-37 0 -104 -4
q-39 0 -84 76q-12 35 -20 100q4 0 8 72q0 3 -4 24q0 53 120 88q0 7 20 8z" />
    <glyph glyph-name="semicolon" unicode=";" horiz-adv-x="445" 
d="M198 1459h8q69 0 160 -56q25 -24 40 -128v-8q0 -98 -64 -136q-19 -36 -60 -36h-20q-37 0 -104 -4q-39 0 -84 76q-12 35 -20 100q4 0 8 72q0 3 -4 24q0 53 120 88q0 7 20 8zM162 551h12q73 0 188 -56q43 -33 52 -72q28 -64 28 -104q0 -26 -32 -140q0 -71 -64 -188
q-10 -76 -40 -76h-20q-120 11 -120 40q-16 69 -16 144v24q0 43 -36 56q-50 0 -96 128q-4 35 -4 44q0 176 52 176q9 0 96 24z" />
    <glyph glyph-name="semicolon" unicode="&#x37e;" horiz-adv-x="445" 
d="M198 1459h8q69 0 160 -56q25 -24 40 -128v-8q0 -98 -64 -136q-19 -36 -60 -36h-20q-37 0 -104 -4q-39 0 -84 76q-12 35 -20 100q4 0 8 72q0 3 -4 24q0 53 120 88q0 7 20 8zM162 551h12q73 0 188 -56q43 -33 52 -72q28 -64 28 -104q0 -26 -32 -140q0 -71 -64 -188
q-10 -76 -40 -76h-20q-120 11 -120 40q-16 69 -16 144v24q0 43 -36 56q-50 0 -96 128q-4 35 -4 44q0 176 52 176q9 0 96 24z" />
    <glyph glyph-name="less" unicode="&#x3c;" horiz-adv-x="804" 
d="M740 1025h16q36 -6 36 -36q0 -93 -104 -116q-36 -43 -244 -96q-40 -19 -40 -24v-4q42 -8 120 -80q240 -107 240 -164q0 -5 36 -88v-4q0 -41 -48 -76q-58 -36 -96 -36q-116 0 -464 284q-65 72 -96 72q-32 -8 -40 -8q-36 0 -36 68v8q0 33 112 76q153 83 332 136
q164 88 276 88z" />
    <glyph glyph-name="equal" unicode="=" horiz-adv-x="588" 
d="M252 872q308 -13 308 -44q16 -24 16 -36q0 -82 -56 -96q0 -9 -184 -32q-77 0 -280 64q-24 17 -28 36q0 43 112 92q84 4 112 16zM408 648q140 0 172 -60q4 -7 4 -16q-13 -76 -76 -76q-65 -28 -80 -32l-80 12q-38 -4 -72 -4q-25 0 -148 12q-9 0 -44 -4q-60 14 -60 52
t116 84l124 28q25 -8 32 -8q82 12 112 12z" />
    <glyph glyph-name="greater" unicode="&#x3e;" horiz-adv-x="664" 
d="M110 1036h12q63 0 160 -52q111 -42 172 -100q159 -121 180 -148q20 -28 20 -52q0 -20 -68 -92q-103 -41 -116 -52q-7 -16 -100 -68q-182 -149 -312 -168h-4q-48 9 -48 40v12q18 67 240 232q38 34 128 80v4q-128 122 -256 200q-47 44 -100 68l-4 20v4q0 32 96 72z" />
    <glyph glyph-name="question" unicode="?" horiz-adv-x="606" 
d="M312 1584q109 0 172 -88q84 -74 84 -152q32 -79 32 -124q-32 -68 -32 -124q-6 -22 -80 -120q-28 -74 -28 -124q-28 -21 -28 -112q-4 0 -4 -8q12 -28 12 -32q0 -10 -28 -88q0 -22 4 -44q-4 -31 -4 -64l4 -20q-4 -20 -36 -52q0 -51 -104 -68q-84 0 -128 136l-12 112
q8 26 8 36v4q0 14 -4 36q32 76 32 164l64 184q0 17 88 172q24 46 24 68v48q0 78 -52 128q-13 8 -20 8q-44 -48 -56 -128q-8 -20 -16 -76q4 -63 4 -92q-26 -76 -72 -76q-20 -4 -20 -8q-108 15 -108 52q-4 36 -8 44q5 50 16 84q-4 22 -4 36q0 81 52 160q99 108 172 108
q43 20 76 20zM272 260q156 -13 156 -48q12 -29 16 -68q0 -108 -140 -160l-36 -4q-98 0 -136 160v4q0 60 116 104q0 8 24 12z" />
    <glyph glyph-name="at" unicode="@" horiz-adv-x="1108" 
d="M532 1380h8q10 0 36 -8l28 4q66 -23 112 -96q8 -13 8 -24q0 -32 -108 -48q-5 0 -64 -48q-77 -36 -108 -108q-51 -58 -72 -100q-44 -60 -92 -164q-52 -92 -68 -208q-12 -56 -12 -88v-28q0 -20 28 -36q16 -29 16 -32l-4 -24q0 -30 104 -108l4 -8v-40q27 -13 44 -36
q43 -28 148 -28h52q56 0 104 44q52 18 104 88q72 167 72 332v36q0 154 -72 432q0 8 -28 52l-4 24q0 40 48 40q124 -68 124 -88q1 -7 32 -32q112 -212 112 -368q4 0 12 -76v-76q-40 -106 -40 -152q-32 -28 -32 -96q-50 -62 -100 -136q-73 -79 -160 -96q-38 -36 -76 -36h-16
q-4 0 -32 8q-91 -12 -112 -12q-23 20 -36 20q-29 0 -104 32q-42 0 -64 56q-42 14 -112 68q-56 0 -100 96q-3 0 -24 -4q-27 0 -40 100q-36 64 -36 148q-5 0 -12 60q18 164 32 164q25 113 72 180q0 30 124 208q0 64 104 116q0 28 96 40q23 26 100 52q0 4 4 4zM548 1080
q80 0 80 -48v-16q30 0 100 -140q0 -25 44 -340q0 -33 12 -92q0 -27 -76 -40q-108 2 -108 28q-28 16 -28 96v8h-4q-35 -11 -36 -20v-56l4 -24q-5 -36 -32 -36h-8q-100 0 -100 48q-24 61 -24 104q16 161 60 336q11 37 24 112q16 14 48 64zM556 764q-16 -77 -16 -136
q28 5 28 36v12q0 29 -8 88h-4z" />
    <glyph glyph-name="A" unicode="A" horiz-adv-x="733" 
d="M332 1548q96 0 154 -175q18 -19 38 -121q64 -89 64 -316q64 -233 64 -262q0 -51 31 -255l41 -182v-4q0 -121 -23 -152q-21 -25 -71 -30q-30 -23 -49 -23l-34 4q-28 -8 -38 -8q-63 0 -94 312q-50 4 -136 26q-26 -220 -26 -304q0 -152 -46 -152q-69 -7 -75 -11v4
q-4 0 -4 -4q-98 0 -98 87q15 163 15 190q0 4 -4 12q23 166 23 342q7 0 15 205q18 69 57 384q9 27 22 163q32 180 72 243q27 17 102 27zM339 951q-22 -102 -22 -300q-27 -106 -27 -148h4q38 8 68 8h30v3q0 30 -34 278q0 41 -15 159h-4z" />
    <glyph glyph-name="B" unicode="B" horiz-adv-x="734" 
d="M176 1515l100 -28l24 4h12q71 0 184 -104q52 -103 52 -224q0 -150 -72 -372l-40 -44q0 -36 -20 -68q122 -30 168 -100q62 -32 104 -92q36 -58 36 -172v-8q0 -99 -40 -140q0 -80 -132 -188l-80 -16q0 -15 -64 -32q-11 0 -56 20q-104 -24 -144 -24q-96 5 -96 44
q-48 57 -48 344q-24 171 -28 360q-16 72 -16 164q8 73 12 260q-8 48 -12 104q0 24 12 148l-4 64q13 96 96 96q18 0 52 4zM308 1323v-8l32 -308h4q20 104 20 160v4q0 121 -56 152zM384 499q-4 -21 -4 -24q20 -149 20 -300v-4h4q64 91 64 160q0 72 -80 164v4h-4z" />
    <glyph glyph-name="C" unicode="C" horiz-adv-x="677" 
d="M344 1566q55 -16 100 -20q80 -61 80 -100q29 -62 76 -104q36 -88 36 -196v-64q0 -144 -20 -144q-30 -22 -80 -32q-124 8 -124 40q-28 31 -28 60v152q0 39 20 152q-16 40 -28 92q-31 16 -48 16h-4q-31 0 -44 -184q16 -75 24 -132q-4 -38 -4 -72v-8q12 -149 12 -168v-76
q0 -153 20 -280q0 -21 -4 -80q59 -296 92 -296q2 75 56 192q10 20 28 80q35 24 60 24h36q68 0 68 -36q0 -70 -40 -216q0 -54 -36 -112q0 -56 -108 -84q-74 -48 -148 -48q-172 0 -276 292q-16 88 -36 308v12q0 17 4 32q-8 39 -12 124q36 359 36 428l40 252q15 33 44 120
q92 64 164 64q44 10 44 12z" />
    <glyph glyph-name="D" unicode="D" horiz-adv-x="702" 
d="M83 1515q61 -8 96 -24q18 -14 200 -44q69 -28 144 -108q132 -164 132 -268v-28l-4 -20q19 0 24 -152q12 -20 16 -152q0 -127 -36 -272q-12 -87 -48 -120q-28 -31 -44 -108q-57 -41 -112 -144q-111 -152 -212 -152q-9 0 -132 72q-56 52 -56 152v4q0 32 12 200
q-16 103 -16 156v148q-16 142 -16 172v200q0 66 -16 172v8q12 109 12 120v32q-32 39 -32 68q16 76 64 76q0 5 24 12zM311 1183v-48q0 -18 44 -316v-44q0 -105 28 -324h4q0 7 28 92q0 18 4 176q-21 256 -40 256q0 27 -64 208h-4z" />
    <glyph glyph-name="E" unicode="E" horiz-adv-x="676" 
d="M445 1530q4 0 4 -4l28 4q120 0 120 -36q0 -67 -52 -80q-55 -24 -128 -40l-8 4q-4 0 -4 -4l-28 4h-72v-4q16 -52 60 -160l-4 -28v-12q5 -36 20 -36q39 0 144 4q48 0 48 -36v-12q0 -70 -176 -104h-8v-8q20 -119 20 -176v-92q0 -32 -8 -72q4 -54 4 -80q0 -9 -4 -44
q24 -63 24 -80q-16 -174 -16 -216q6 -100 44 -100q200 -16 200 -32q12 -22 12 -36q0 -64 -216 -128q-40 -12 -96 -12q-118 0 -240 80q-24 32 -24 136q-8 0 -20 236q-8 0 -8 32t4 76q-8 80 -12 276q4 25 4 60q-12 52 -16 120q4 160 4 220q-3 75 -12 88q4 41 4 64v20q0 4 4 4
q-28 84 -28 116q0 24 80 44l280 32q0 7 40 8h28q4 0 4 4z" />
    <glyph glyph-name="F" unicode="F" horiz-adv-x="573" 
d="M438 1532q4 0 4 -4l28 4q120 0 120 -36q0 -67 -52 -80q-55 -24 -128 -40l-8 4q-4 0 -4 -4l-28 4h-72v-4q16 -52 60 -160l-4 -28v-12q5 -36 20 -36q39 0 144 4q48 0 48 -36v-12q0 -70 -176 -104h-8v-8q20 -119 20 -176v-92q0 -32 -8 -72q4 -54 4 -80q0 -9 -4 -44
q24 -63 24 -80q-16 -174 -16 -216q17 -155 40 -176v-12q0 -108 -40 -108q0 -9 -36 -12h-12q-129 0 -248 80q-24 32 -24 136q-8 0 -20 236q-8 0 -8 32t4 76q-8 80 -12 276q4 25 4 60q-12 52 -16 120q4 160 4 220q-3 75 -12 88q4 41 4 64v20q0 4 4 4q-28 84 -28 116
q0 24 80 44l280 32q0 7 40 8h28q4 0 4 4z" />
    <glyph glyph-name="G" unicode="G" horiz-adv-x="757" 
d="M455 1577q148 0 188 -84l16 -56q0 -10 -4 -32q4 -83 4 -136q-8 -54 -8 -68l12 -72q-23 -112 -52 -112q-44 -8 -108 -12q-107 0 -148 84q-36 161 -36 292q-28 -20 -28 -32q0 -50 12 -172v-28q0 -23 -4 -64q44 -212 44 -252l-4 -16q12 -20 12 -32v-32q0 -5 12 -80
q0 -21 -4 -36q0 -122 36 -208q0 -62 28 -156q4 -21 4 -48v-12q29 -36 48 -96h4q28 157 28 292v28q0 82 -12 144q4 86 4 128q-74 20 -84 28l-4 20v4q0 59 160 72h36q80 0 100 -44q29 0 36 -152v-8q0 -22 -28 -124q0 -30 -8 -112q0 -23 16 -148q-35 -168 -64 -204
q-61 -65 -124 -80q-99 -52 -168 -52q-70 0 -156 76q-98 84 -160 372q-12 32 -16 144q-7 0 -12 72q8 48 8 76v8q-16 18 -16 56q0 34 12 64q0 3 -4 24q12 262 20 352q44 221 92 300q76 78 192 108q54 16 128 16z" />
    <glyph glyph-name="H" unicode="H" horiz-adv-x="791" 
d="M528 1500h68q48 0 48 -100q68 -167 68 -292q12 -118 24 -324q4 0 4 -8l-12 -76q16 -80 32 -272v-4q0 -17 -4 -44q28 -91 28 -152q0 -22 -16 -48q0 -13 24 -120q-25 -100 -68 -100q0 -16 -72 -24q-132 22 -132 60q-18 0 -48 332h-28q-47 -2 -48 -12q8 -47 8 -60
q-4 -21 -4 -24q12 -20 12 -32v-16l-20 -76q0 -63 -32 -80q-48 -28 -120 -28h-4q-108 0 -108 32q-22 0 -64 192q-24 53 -52 444l8 316q-4 34 -4 52q4 77 4 100q-4 74 -4 92q8 85 8 96q-12 44 -12 68q0 33 104 60q33 -12 120 -16q68 0 88 -260q16 -97 36 -364q4 0 8 -28
q-5 -5 -8 -56q12 -44 12 -76q0 -34 -4 -152q5 -44 16 -44q38 0 72 36h4v28q0 76 -28 252q8 79 8 96q-16 94 -16 164v76q0 106 4 240q-4 27 -4 84q33 68 104 68z" />
    <glyph glyph-name="I" unicode="I" horiz-adv-x="389" 
d="M154 1468q109 0 140 -56q8 -26 8 -36v-44q28 -61 28 -124q4 -44 4 -80q-4 -102 -4 -120q4 -34 4 -52l-8 -40l8 -68q-4 -80 -4 -120q0 -34 4 -156l-4 -16q0 -39 20 -224v-8q0 -40 -4 -96q16 -30 16 -60q0 -21 -4 -80q12 -56 12 -92v-4q-7 -44 -76 -44q-11 -10 -116 -16
q-116 0 -116 48q-24 62 -24 160v168q-8 88 -8 92q0 62 8 196q-4 181 -16 236q4 34 4 52q0 33 -8 196q24 134 24 284v40q0 28 72 64h40z" />
    <glyph glyph-name="J" unicode="J" horiz-adv-x="729" 
d="M436 1481q108 0 160 -68q68 -30 68 -132q0 -59 20 -80q0 -46 28 -156q-4 -16 -12 -132q20 -115 20 -168v-32q0 -81 -24 -180q8 -25 8 -40l-16 -76q0 -164 -44 -240q0 -92 -80 -156q-63 -6 -124 -52l-44 -16l-20 4l-120 -24h-8q-116 0 -216 200q-16 42 -32 212
q0 40 20 128q-8 37 -8 64q0 26 68 40h32q57 0 88 -40q45 -33 72 -180q24 -124 44 -188q16 0 48 288q-4 41 -8 48q4 34 4 56v72q8 90 8 96v24q-12 94 -12 104q0 71 8 228q-4 92 -20 200v24q13 164 32 164q20 8 60 8z" />
    <glyph glyph-name="K" unicode="K" horiz-adv-x="774" 
d="M225 1463q86 0 128 -76q8 -48 8 -76v-52q100 164 188 164q56 -12 56 -48q0 -43 -64 -116q-40 -42 -40 -80q-48 -96 -60 -140q160 -201 160 -236q16 -27 28 -104q0 -4 -4 -4q0 -30 44 -152q0 -82 40 -228q32 -94 56 -260q-5 -47 -40 -96q-30 -16 -88 -24q-132 13 -132 80
q-54 122 -132 448h-8q-8 -40 -8 -52q12 -78 16 -136q-8 -133 -36 -148q-66 -12 -88 -32q-7 -4 -16 -4h-20q-120 27 -120 44q-52 56 -52 168q-4 0 -4 8q0 4 4 4q-4 83 -12 136l4 24q0 4 -4 12l4 20q-4 61 -4 112q0 4 -4 4l4 8v144l4 24q-3 9 -8 108q12 118 32 472q9 72 72 72
q96 8 96 12z" />
    <glyph glyph-name="L" unicode="L" horiz-adv-x="693" 
d="M167 1487q148 -15 148 -48q44 -29 44 -140q40 -153 68 -360q0 -6 -8 -64v-28l32 -164q-8 -51 -8 -64q24 -42 24 -64v-8q0 -13 -12 -44q4 -98 4 -108q-8 -36 -8 -52v-4q0 -10 8 -128v-68q0 -40 108 -40q104 0 104 -28q12 -2 12 -32q0 -66 -128 -108q-68 -16 -128 -16h-156
q-63 0 -152 96q-56 93 -56 292q-4 0 -16 88q8 69 8 100q-28 126 -28 152l12 132q-24 145 -24 260q0 85 4 380q16 68 148 68z" />
    <glyph glyph-name="M" unicode="M" horiz-adv-x="972" 
d="M740 1476q72 -20 96 -68q9 -10 40 -136q24 -20 24 -52v-76q0 -23 8 -116q0 -26 -8 -80q4 -25 4 -56q0 -15 -16 -84v-32q68 -255 68 -328v-20q0 -42 -44 -152q8 -70 8 -116q0 -172 -88 -196q-27 -4 -44 -4q-74 0 -116 64q-23 55 -24 112q28 279 28 396v68q12 77 12 128v84
h-4q0 -198 -96 -252l-48 -12q-105 0 -144 20l8 -40q-4 -71 -4 -116q0 -20 44 -224q12 -65 12 -112q-33 -84 -88 -84q0 -10 -120 -32q-56 0 -128 64q-52 91 -60 228q-32 153 -32 268v104q-8 118 -8 128v52q8 118 8 128v72q0 51 -4 112q12 77 12 128q0 28 -8 116q42 84 100 84
h76q39 0 92 -40q12 -6 32 -80q78 -93 88 -156q0 -54 68 -264q8 -41 12 -76h4q40 100 96 544v40q0 54 88 60q34 4 56 4z" />
    <glyph glyph-name="N" unicode="N" horiz-adv-x="914" 
d="M738 1520h44q54 0 72 -88v-64q0 -30 24 -156v-8q0 -74 4 -120q-4 -40 -4 -100q20 -101 20 -212v-4q0 -78 -8 -148q4 -50 4 -60q-4 -86 -4 -128l12 -64q-8 -32 -8 -68v-108q0 -25 -4 -60q4 -14 4 -40q-25 -88 -84 -88q0 -8 -28 -8h-4q-20 0 -48 8q-20 -16 -80 -24l-8 4h-4
q-99 0 -116 36q-68 114 -68 164q-65 117 -108 272h-4v-108q0 -37 4 -104l-8 -24q4 -52 4 -84v-4q0 -71 -40 -100q-34 0 -84 -28h-56q-96 0 -136 112l-4 28q0 2 4 52l-12 100q0 13 4 116q0 24 -8 120q16 98 36 316q12 25 12 80q0 211 28 284v28q0 9 -36 72v12q0 32 72 72
q35 12 52 12q133 0 224 -160q0 -38 96 -180q10 -66 48 -156q4 0 24 -68q-4 -16 -4 -28q23 0 44 -156q32 -56 32 -100v-28l4 -20h4l16 96q-4 67 -4 104v108q16 77 24 360q6 0 8 84q-8 170 -8 208q0 17 56 48z" />
    <glyph glyph-name="O" unicode="O" horiz-adv-x="765" 
d="M370 1367h24q205 0 240 -140q15 -51 52 -112q11 -33 16 -124q44 -174 44 -344q0 -208 -64 -388q-17 -61 -72 -100q-12 -35 -96 -60q-85 -16 -124 -16h-16q-251 0 -352 544q-4 93 -8 120q0 57 40 264q0 54 92 252q29 84 136 84h36q46 20 52 20zM362 1171q-32 -79 -32 -244
q-12 -74 -12 -144q0 -52 28 -240v-8q0 -4 -4 -4q45 -71 72 -176q16 -41 32 -48q48 78 48 308l-4 8q0 4 4 4q-16 184 -48 308q-28 72 -56 208q-16 24 -28 28z" />
    <glyph glyph-name="P" unicode="P" horiz-adv-x="599" 
d="M231 1487q238 -25 238 -80q14 0 43 -42q33 -19 53 -92q0 -57 25 -130v-19q-14 -75 -14 -88q10 -83 10 -122v-49q0 -270 -199 -436q-110 -25 -110 -42v-11q11 -94 11 -111v-4q0 -3 4 -3l-4 -8q0 -13 4 -111h3q0 -47 -21 -69l10 -34q0 -46 -71 -103h-32q-112 0 -138 31
q-18 26 -25 87q18 152 18 180q-7 60 -7 80q0 24 3 57q-7 31 -7 73v34q0 16 4 31q0 4 -4 11q0 3 4 92q0 143 -7 340q0 30 14 179v65q0 64 7 118q-11 29 -11 42q0 42 75 107q27 18 124 27zM299 1189q10 -77 10 -141l-3 -15q7 -23 7 -69q0 -40 -4 -145q7 -51 7 -99v-8
q0 -27 -10 -73l3 -34l-10 -53v-4q85 70 85 256q0 16 -7 110q0 3 3 50q-21 178 -64 210q-2 0 -17 15z" />
    <glyph glyph-name="Q" unicode="Q" horiz-adv-x="821" 
d="M358 1501h12q188 0 256 -101q0 -21 42 -105q0 -73 27 -131q8 -15 8 -31v-31q0 -16 -4 -43q27 -118 27 -175v-11l-4 -23q8 -22 15 -148l-3 -19q15 -73 19 -275q3 -24 7 -24q-4 -5 -7 -42q3 -81 3 -132q-3 -8 -3 -12q27 -16 65 -120q38 -25 38 -105q0 -27 -103 -46
q-85 0 -111 85l-8 4q-4 -16 -161 -81q-39 -16 -69 -16h-19q-130 0 -237 233l-107 314q0 8 11 38q-31 27 -31 156q0 10 8 23q-19 36 -19 77q0 6 4 62q-4 8 -4 12q11 47 27 275q23 140 61 214q67 163 100 166q24 8 30 8l54 -4q38 8 76 8zM286 1245q0 -8 3 -8q-3 -134 -3 -194
v-38q0 -163 53 -404q2 -98 65 -267q12 -31 19 -31h50v4q12 92 12 128v4q0 33 -12 97q12 66 12 151q-8 79 -12 89q4 33 4 54v8q0 56 -19 233q0 157 -61 290q-15 20 -35 20q-50 -14 -50 -82q0 -5 -26 -54zM443 194q26 -55 34 -58l4 20v23q0 11 -38 15z" />
    <glyph glyph-name="R" unicode="R" horiz-adv-x="712" 
d="M126 1508q234 0 272 -44q86 -75 124 -164q40 -108 40 -200q8 0 8 -80v-24q0 -20 -20 -64l4 -28q0 -94 -92 -216q-11 0 -36 -32q118 -85 148 -184q0 -9 64 -128q34 -145 64 -168q0 -15 44 -136q4 -22 4 -36v-4q0 -40 -96 -96q-28 -4 -32 -4q-112 16 -112 48q0 55 -124 296
l-12 40h-4q-4 -21 -4 -24q20 -120 20 -196v-64q0 -38 -208 -60q-71 0 -88 48q-28 51 -44 428q-28 173 -28 364q-4 0 -4 20q8 470 8 640q0 49 104 68zM262 1360q8 -25 12 -164q-4 -21 -4 -24q20 -64 20 -92v-96l24 -168h4q64 84 64 176v56q0 241 -116 312h-4z" />
    <glyph glyph-name="S" unicode="S" horiz-adv-x="693" 
d="M394 1489q144 0 144 -52v-8q0 -29 -48 -56q-104 -85 -104 -224q0 -99 184 -308q60 -78 100 -304l12 -80v-8l-20 -104q0 -55 -20 -92q0 -87 -44 -128q-35 -45 -44 -80q-51 -17 -76 -44q-21 -16 -36 -16h-28q-46 -52 -128 -52h-20q-67 0 -160 88q-96 119 -96 248v16
q33 88 108 88h28q54 0 68 -108q36 -128 64 -128q64 90 64 124v156q-12 181 -40 232q-19 33 -28 92q-49 49 -124 224q-29 71 -40 232q0 103 80 180q26 46 40 64q22 26 164 48z" />
    <glyph glyph-name="T" unicode="T" horiz-adv-x="707" 
d="M360 1538q124 -16 140 -16q35 4 44 4q196 -29 196 -76q8 0 8 -36q0 -44 -196 -84h-56l-20 4q-5 -41 -8 -48q4 -7 4 -16q0 -4 -4 -12q11 -52 16 -332q-7 0 -12 -128q-28 -61 -28 -80v-20q0 -4 4 -4q0 -4 -4 -4l4 -28q0 -29 -32 -76l-20 -192q0 -27 4 -124q-8 -41 -16 -188
q8 -45 8 -64q0 -104 -56 -104q-7 -4 -20 -4h-32q-128 9 -128 36q-8 17 -12 52l4 56q-16 174 -16 192q12 177 20 252q-3 44 -8 44q0 4 4 4l-4 28v52q0 4 -4 4q0 4 4 4l-8 140q4 149 12 256l-4 36l24 308q-164 23 -164 84v8q0 38 148 60q0 4 208 12z" />
    <glyph glyph-name="U" unicode="U" horiz-adv-x="840" 
d="M176 1415q152 -22 152 -52q44 -59 44 -120v-96q0 -44 -16 -152q16 -123 32 -184q0 -2 -4 -52q24 -147 24 -280q24 -120 56 -120q0 -9 36 -12l12 16v12q0 13 -4 20l12 84v12q0 36 -32 152q4 79 4 104q-16 70 -16 120v44q0 88 36 232q0 153 40 208q57 52 140 52
q47 -23 72 -64l4 -48v-100q0 -17 4 -44q-12 -45 -12 -96v-24q0 -22 28 -100v-4q-8 -45 -8 -68q0 -14 16 -60q-4 -34 -4 -56q12 -35 12 -64l-4 -48q20 -55 20 -124v-28q0 -55 -36 -172q0 -119 -116 -172q0 -14 -100 -24q-75 -40 -184 -40q-163 0 -276 164q-76 152 -76 308
q-6 0 -12 88q0 20 8 76q-4 80 -4 140v136q0 17 20 132q-12 26 -24 128v4q0 30 12 32l-4 20q26 47 36 84q5 0 108 36h4z" />
    <glyph glyph-name="V" unicode="V" horiz-adv-x="760" 
d="M164 1472q92 0 128 -100q28 -91 60 -312l72 -324q-4 -50 -4 -60q20 -42 20 -56h4q0 30 36 200q36 309 72 416q23 144 108 144q108 -23 108 -60q-9 -136 -24 -164l4 -28v-16q-16 -78 -36 -252q-15 -30 -28 -192q-4 0 -4 -12q12 -27 16 -64q0 -53 -44 -204q-4 -76 -56 -316
q-44 -112 -220 -112q-100 10 -100 48q-133 184 -152 376q-56 335 -56 448q-38 36 -40 324q0 9 -8 72q0 4 4 4q-4 90 -24 172q0 54 152 68h12z" />
    <glyph glyph-name="W" unicode="W" horiz-adv-x="1050" 
d="M874 1556h56q72 0 72 -52q0 -15 36 -148v-4l-12 -96q0 -43 8 -92q-44 -206 -44 -268q0 -78 -44 -268q0 -94 -28 -164q0 -88 -32 -176q0 -120 -52 -244q-50 -64 -124 -64q-55 4 -68 4l-16 -4q-50 0 -100 76q-24 69 -44 252q0 3 4 24v8h-4q-28 -122 -64 -216
q-33 -80 -144 -80q-50 -16 -84 -16q-121 0 -148 320q-16 135 -28 420q-4 0 -4 20q4 235 8 284l-4 20q16 114 16 168q-3 76 -8 76q0 53 132 60h60q43 0 68 -120q0 -32 24 -92q0 -56 44 -224v-12q0 -8 -8 -40q0 -10 28 -100l-4 -24v-16q12 -17 12 -40h4q25 176 56 176
q20 20 72 20h12q46 -11 116 -92q24 -59 48 -336v-12q28 -63 28 -132h4q0 107 52 544q0 117 20 496q-4 27 -4 44q43 120 88 120z" />
    <glyph glyph-name="X" unicode="X" horiz-adv-x="864" 
d="M168 1496q135 0 160 -44q56 -28 56 -76q68 -59 88 -128l52 -84q12 -29 12 -36h8q44 96 104 268q0 19 124 40h32q56 0 56 -72v-4q0 -6 -40 -80q-84 -255 -84 -268q0 -42 -60 -128v-8q0 -20 16 -100q20 -47 24 -76q13 -2 20 -68q52 -77 52 -168l-4 -16q8 -13 8 -24v-16
q0 -9 -4 -16q12 -29 12 -36l-12 -56q19 -34 28 -76q-3 -28 -8 -28q28 -42 28 -164q-29 -72 -156 -72h-28q-70 0 -92 56q-28 23 -68 204q-7 0 -16 40h-8q-44 -84 -44 -240q-23 -80 -128 -80q-88 0 -88 36q-36 71 -36 140q0 88 96 388q43 80 48 108v32q-35 100 -112 264
q0 45 -84 180l-32 104q-28 36 -44 128q-44 53 -44 92v8q0 59 168 76z" />
    <glyph glyph-name="Y" unicode="Y" horiz-adv-x="578" 
d="M39 1511h34q97 0 132 -74q11 -54 57 -185q-8 -17 -8 -47q20 0 23 -86q7 0 7 -27h4q0 29 68 168q22 54 53 200q13 27 45 27q114 0 114 -39q11 -6 11 -39l-45 -200q0 -68 -98 -243q0 -23 -34 -113q0 -52 -31 -83q-3 -7 -3 -15v-4q22 -75 22 -98q0 -36 53 -247v-24
q0 -28 -11 -113q2 -36 7 -36l-7 -51q7 -27 7 -43q-15 -36 -15 -51v-7l23 -126q-21 -43 -125 -43h-15q-121 0 -121 118q0 32 -30 137q-15 225 -41 482v110q-39 96 -53 207q-57 259 -57 498v23q13 24 34 24z" />
    <glyph glyph-name="Z" unicode="Z" horiz-adv-x="651" 
d="M164 1451h24q74 0 152 -15l8 4q8 -4 12 -4q9 0 16 4q96 0 96 -79q4 -5 4 -26q-12 -35 -12 -60q0 -17 4 -112h-4q0 -4 4 -4q-28 -160 -44 -273h4q-4 -8 -8 -34h4q-4 -9 -8 -37h4q-4 -30 -8 -30q0 -4 4 -4l-4 -15q8 -45 8 -67h-4q0 -4 4 -4l-8 -64q0 -3 4 -3q-8 -48 -8 -98
h-4q0 -3 4 -3q-12 -92 -28 -143l4 -44q0 -12 -40 -139q0 -33 24 -49q22 0 144 27l20 -4h84q32 0 56 -45v-4q0 -40 -56 -60q0 -49 -160 -67q-12 0 -28 -4v4q-94 -15 -136 -15h-32q-9 0 -16 4q-4 0 -4 -4q-71 7 -140 37q-84 66 -84 150q0 121 80 591q0 4 -4 4q0 148 72 371
q20 100 20 153v19q-30 11 -156 15q-28 16 -28 45q0 38 92 75q40 7 72 7z" />
    <glyph glyph-name="bracketleft" unicode="[" horiz-adv-x="758" 
 />
    <glyph glyph-name="backslash" unicode="\" horiz-adv-x="569" 
 />
    <glyph glyph-name="bracketright" unicode="]" horiz-adv-x="758" 
 />
    <glyph glyph-name="asciicircum" unicode="^" 
 />
    <glyph glyph-name="underscore" unicode="_" horiz-adv-x="102" 
d="M-3696 -120l68 7q257 -4 395 -4h227l56 -3q45 6 187 10q0 -3 5 -3l23 3q89 0 288 -16q7 0 57 3q284 -20 356 -20h6q113 0 147 7v-3q6 0 6 3q35 -7 45 -7q82 4 158 10q105 -6 187 -6h11l28 3q0 -3 17 -3l12 3v-3q99 3 124 3q6 0 17 3v-3q20 3 107 10q0 -4 6 -4q0 4 6 4
h107q161 9 266 9q81 0 237 -9h23l28 3q0 -3 6 -3t17 3v-3q212 26 355 -2q179 -67 196 -140q37 -38 -82 -60q-213 -52 -516 -67q-216 -3 -535 -8q-10 0 -51 10q-26 -3 -68 -16q-3 0 -85 6h-34q0 -13 -40 -19q-34 0 -84 10q0 -13 -34 -20q-14 0 -51 7l-17 -7h-23q-17 0 -45 10
h-6q0 -26 -220 -26h-29q-113 0 -288 16q-55 -6 -62 -6l-40 9q-31 -3 -51 -3h-45q-254 8 -254 16q-6 0 -17 -3l-453 10q-15 0 -34 6q0 -3 -5 -3h-125q-24 0 -62 3q-6 -3 -45 -3h-11l-12 3q0 -3 -5 -3h-51q-24 0 -45 3l-34 -3q-104 0 -294 -6l-23 6q-59 -13 -68 -13l-40 3
q-41 0 -175 -9q-92 3 -164 3h-73q-30 0 -153 -10q-14 0 -51 7q-116 -10 -203 -13q-12 3 -17 3q-6 0 -17 -3q-286 13 -487 35q-17 0 -39 -3q-221 12 -221 36q-10 18 -96 49q-42 0 -62 81q11 29 34 29q35 68 220 68q221 -16 300 -16q483 46 741 46h192q14 0 181 6h124z" />
    <glyph glyph-name="grave" unicode="`" horiz-adv-x="1024" 
 />
    <glyph glyph-name="a" unicode="a" horiz-adv-x="754" 
d="M380 1469h4q68 0 152 -172q0 -41 40 -100q17 -86 28 -116q20 -60 20 -88q0 -11 -8 -24q16 0 28 -124q32 -95 32 -188q11 -31 16 -84l-12 -72q16 -44 16 -56q0 -8 -8 -40q12 -28 12 -52q-4 -41 -4 -48q12 0 24 -72l-4 -8v-4q12 -163 12 -176v-20q0 -60 -32 -60
q-36 -20 -92 -20q-95 0 -112 40q-87 172 -100 372q-4 12 -88 16h-24q-4 0 -12 -16l4 -8v-24q0 -21 -12 -64q9 -60 12 -60q-7 -35 -36 -88q0 -75 -28 -88q-31 -24 -48 -24q-112 0 -136 92v48q0 106 28 276q0 23 -4 100q32 174 92 572q52 221 52 268q17 40 76 64q14 48 112 48
zM340 1013q-20 -177 -48 -320v-8q0 -34 4 -72q-12 -60 -12 -104q40 -4 60 -4h36v4q0 20 -8 88q12 63 12 104v20q0 128 -40 292h-4z" />
    <glyph glyph-name="b" unicode="b" horiz-adv-x="655" 
d="M197 1616q151 0 336 -128q40 -47 68 -180q12 -68 16 -144q0 -41 -32 -100q-6 -112 -40 -112q-64 -152 -108 -192q-24 -32 -24 -48q78 -17 132 -76q80 -114 80 -228q8 -53 8 -104q0 -94 -36 -144q0 -84 -148 -188q-32 -56 -120 -56h-20q-19 0 -48 36h-44q-84 0 -84 36
q-23 15 -36 104q-8 32 -8 40v48q-44 297 -44 416l-16 304q0 8 12 40l-4 36q0 7 8 120q-4 68 -12 108q4 46 8 52l-4 16q0 118 24 236v12q-16 21 -16 36v12q22 48 136 48h16zM285 1436l4 -8v-112l32 -244q-4 -72 -4 -96l4 -36h4q64 138 64 244v40q0 149 -104 212zM341 600v-4
q24 -160 24 -176q15 0 24 -156q15 -56 20 -56q18 84 28 84l-4 40v68q0 63 -64 180q-24 20 -28 20z" />
    <glyph glyph-name="c" unicode="c" horiz-adv-x="720" 
d="M422 1528l8 -4q4 0 4 4q41 0 80 -32q47 0 64 -52q31 -12 48 -68q36 -75 36 -120v-16q0 -13 -12 -44l8 -16q-4 -50 -4 -56q12 -127 16 -140l-4 -8q4 -7 4 -16l-4 -8q0 -4 4 -4q0 -100 -112 -100q-6 -4 -24 -4q-96 23 -96 64q-20 30 -20 76q4 8 4 12t-4 4l4 20v4
q0 33 -12 116q4 71 4 116q-8 52 -24 52l-36 -144l8 -60q-32 -105 -32 -200q-8 -23 -24 -140h4q-12 -61 -12 -128h-4q0 -4 4 -4q-5 -50 -8 -60q0 -4 4 -4l-4 -20v-36q0 -63 8 -84h-4q4 0 8 -64q-4 -41 -4 -48q0 -13 28 -76q0 -60 12 -60q56 65 56 112q8 39 8 104
q0 60 -16 124v4q0 55 168 80h24l8 -4v4q68 -20 68 -68q0 -36 20 -104v-24q0 -9 -4 -16q16 -32 16 -44v-4l-4 -24l8 -20l-4 -16l4 -56q0 -67 -64 -172l-80 -40q0 -16 -52 -40q-7 -29 -140 -40q0 -5 -48 -12h-20q-64 0 -112 68q-48 0 -116 360q-20 125 -20 280v92l4 28h-4
q4 8 4 12q0 93 32 264q-4 7 -4 16q0 4 4 4q0 4 -4 4q33 230 88 324q73 111 132 132q42 15 132 20z" />
    <glyph glyph-name="d" unicode="d" horiz-adv-x="750" 
d="M252 1541q192 0 272 -136q81 -101 156 -292q44 -139 44 -196q0 -22 -4 -56q12 -79 12 -108q0 -43 -12 -128q4 -34 4 -52q-24 -82 -32 -164q-48 -109 -64 -172q-51 -41 -68 -96l-56 -36q-113 -196 -216 -196q-50 0 -76 44q-80 0 -108 48q-36 115 -40 260q-8 42 -8 148v48
q-12 119 -12 196q0 3 8 28q-8 36 -12 124q4 102 8 116l-8 52l8 136q-4 134 -4 252v52q-16 49 -16 60q0 60 216 68h8zM288 1393l64 -272v-80q40 -29 40 -120q0 -6 -8 -32q12 0 16 -56v-8q0 -27 -4 -48l4 -28q-4 -50 -4 -52q8 -50 8 -84v-252q0 -17 -8 -32v-4h4q68 121 68 204
q24 85 24 220v28q0 346 -132 556zM392 321v-8h4v8h-4zM380 285v-8h4v8h-4z" />
    <glyph glyph-name="e" unicode="e" horiz-adv-x="651" 
d="M180 1456q114 -11 147 -23q17 8 50 8q103 -11 194 -15q58 -31 58 -79q-53 -106 -209 -106h-47l-19 -4v4l-8 -4q-7 4 -15 4q-12 -30 -12 -56v-8q0 -30 4 -79l-19 -53q6 -56 15 -56t58 4q151 -35 151 -49q24 -21 24 -46q-25 -60 -97 -60q-12 0 -117 -38h-15l4 -7
q0 -11 -4 -11q4 -45 4 -64v-57q0 -26 -8 -117q4 -30 16 -53l-4 -45v-37q0 -141 15 -196q-4 -39 -4 -61v-7q0 -23 27 -23q70 0 144 8q93 0 93 -45q-41 -112 -264 -107q-177 -14 -250 34q-44 200 -44 393q0 60 8 147q-8 27 -16 124l8 87q-4 9 -8 128l19 245q-7 24 -7 34v15
q0 18 4 37q-4 26 -8 34q4 32 4 53v79q0 32 85 64q43 0 43 4z" />
    <glyph glyph-name="f" unicode="f" horiz-adv-x="582" 
d="M230 1520l92 -8q21 8 32 8q216 0 216 -48q4 -22 4 -32q0 -43 -124 -72q-50 12 -64 12l-64 -24q-8 4 -36 8v-16q4 -167 16 -168q80 -1 80 -8l8 4h80q76 0 76 -56q0 -72 -36 -72q-6 -13 -56 -32l-56 4q-33 0 -88 -8q12 -54 12 -64q0 -39 -4 -144q20 -95 20 -124l-4 -16
q8 -15 8 -32v-28q0 -34 -4 -72q0 -7 20 -132q-4 -44 -4 -80q28 -82 28 -184q24 -59 24 -108v-12q0 -56 -208 -76h-4q-58 0 -72 28q-44 102 -44 220q-2 2 -20 172q-7 0 -12 120q0 20 8 96q-16 41 -16 72v48q0 72 8 92q-12 132 -12 272q8 71 8 88l-12 80q0 37 4 104
q-4 53 -4 88q0 88 140 88q0 3 60 12z" />
    <glyph glyph-name="g" unicode="g" horiz-adv-x="812" 
d="M434 1540q175 0 240 -160q4 -22 4 -36q0 -28 -8 -44q8 -53 8 -76q-8 -38 -8 -60l4 -48q-8 -20 -8 -32q7 -36 12 -36l-12 -56q12 -42 12 -64q0 -64 -112 -64q-108 0 -136 76q-20 35 -20 72v44q0 4 4 4l-4 8q0 39 -16 228q4 25 4 56v20h-4q-36 -13 -36 -76l-64 -208l4 -20
v-24l-16 -128l-20 -60q8 -23 12 -52q-12 -28 -12 -84q122 76 280 76h4l20 -4v4l8 -4h4q114 0 124 -44q0 -64 32 -116q8 -132 28 -200q28 -167 28 -196q0 -10 -16 -28v-36q0 -17 -12 -44q12 -125 12 -168q0 -25 -64 -40v4l-8 -4q-51 0 -96 40q-20 44 -20 60
q-107 -84 -208 -84h-4q-13 0 -44 12q-13 -8 -24 -8h-24q-9 0 -16 4q-23 -8 -68 -12q-32 0 -100 160q-56 101 -56 216q0 4 4 4q-12 144 -12 196v20q0 14 -4 36q4 6 4 24q0 4 -4 4l4 20q1 164 68 600q17 116 96 220q89 108 212 108h24zM266 648v-36l-4 -24q4 -7 4 -16l-4 -20
q4 -16 4 -28q0 -4 -4 -12q0 -4 4 -4q-4 -35 -4 -44q0 -26 8 -80q-8 -28 -8 -48q12 -91 48 -188q1 -8 8 -8q33 31 44 108q36 83 36 124v92q0 33 16 160v4h-12q-88 0 -136 20z" />
    <glyph glyph-name="h" unicode="h" horiz-adv-x="828" 
d="M585 1564h28q91 0 108 -40q28 -26 28 -164q28 -101 28 -160q0 -16 -8 -80q8 -76 16 -244q4 0 4 -8q-24 -133 -24 -136t4 -24q0 -26 -4 -68q4 -49 4 -96l-16 -76q12 -60 12 -100v-56q0 -64 -12 -88q4 -22 4 -32q0 -81 -8 -128q12 -32 12 -68v-8q0 -35 -84 -44
q-20 0 -60 -4q-78 0 -96 56q-40 105 -40 196v8q0 8 -8 8q-80 0 -80 -16v-4q0 -22 16 -128q-6 -108 -44 -108q-23 -24 -44 -24h-20q-9 0 -16 4q-6 0 -44 -32q-22 -4 -36 -4h-32q-104 0 -104 136q-28 171 -28 376q12 41 12 384v28q0 66 20 228q12 202 12 236l-16 140
q0 39 96 52q12 0 28 -4q16 4 32 4q68 0 68 -64q18 0 28 -96q0 -2 -4 -52q20 -113 20 -192v-4q0 -52 -8 -72q4 -20 8 -120q-4 -80 -4 -88q0 -48 28 -240q0 -92 20 -220h4q52 12 68 12h12l4 20q0 93 -4 204q16 113 20 184q-8 67 -8 104q12 198 12 672q0 29 96 40z" />
    <glyph glyph-name="i" unicode="i" horiz-adv-x="436" 
d="M267 1563q156 0 156 -100q0 -65 -84 -140q0 -7 -133 -19q-135 3 -151 82l-11 69q9 39 39 80q88 28 184 28zM199 1159h28q125 0 144 -104q20 -83 20 -128q0 -10 -12 -44q12 -19 12 -52v-20q0 -42 -16 -84l4 -20v-24q0 -28 -12 -140q0 -35 12 -108q-15 -116 -20 -116
l32 -320v-20q0 -38 -80 -48q-40 -20 -112 -20h-20q-67 0 -80 44q-28 19 -28 108l-24 316q0 27 8 132l-8 152q8 110 28 276q4 55 4 120v36q0 31 72 60q21 4 48 4z" />
    <glyph glyph-name="j" unicode="j" horiz-adv-x="797" 
d="M508 1498q120 0 160 -184q92 -310 92 -440q-4 -70 -4 -88q16 -27 16 -48v-28l-4 -24q12 -54 12 -116q-4 -93 -12 -104q4 -27 4 -44v-4q-15 -263 -44 -296q0 -72 -100 -72q-165 -120 -248 -120h-16q-161 0 -280 204q-40 55 -64 328q16 189 24 232q32 64 112 64h4
q166 0 188 -132q0 -95 40 -276v-36q64 -93 64 -116h4q8 73 8 124v104q0 43 8 112q0 20 -4 60q4 54 4 92q0 19 -12 120q0 22 4 44q-4 56 -4 108v64q-12 106 -20 268v20q-20 113 -20 136q0 30 88 48z" />
    <glyph glyph-name="k" unicode="k" horiz-adv-x="770" 
d="M554 1464h32q84 0 84 -56q-48 -174 -80 -220q0 -16 -20 -44q0 -29 -64 -152q-16 -34 -16 -60q21 -70 96 -140q44 -59 44 -132q36 -24 56 -176q4 -26 4 -52v-20q32 -49 32 -144q20 -45 20 -80v-16l-4 -24q16 -51 16 -96q0 -72 -128 -72q-92 4 -92 40q-24 38 -68 220
q-64 175 -64 196h-4q-12 -72 -12 -104l16 -260v-4q0 -51 -176 -80q-98 0 -124 144q-60 385 -60 468l4 24q-7 0 -12 156q0 8 4 88h4q-12 22 -12 44q5 72 12 72q0 4 -4 32q0 61 20 296v88q0 35 80 52h72q9 0 16 4q108 -15 108 -96q0 -29 24 -212v-20q11 12 44 136
q45 121 100 172q39 28 52 28z" />
    <glyph glyph-name="l" unicode="l" horiz-adv-x="593" 
d="M176 1491l8 -4q4 0 4 4l20 -4q8 0 8 4q145 -14 152 -76l24 -260v-64q0 -78 -16 -200q8 -59 8 -88v-148q0 -38 -4 -76q4 -18 4 -64q0 -16 -16 -116l16 -160q-8 -38 -8 -60v-4q54 -31 156 -48q32 -39 32 -72q0 -36 -56 -48q-43 -28 -96 -28h-16l-24 4q-6 -5 -40 -8
q-207 0 -268 84q-20 68 -20 104q0 62 4 196q0 6 -4 56q4 28 4 92h4q-8 21 -8 84v56q0 52 8 72q-4 8 -4 12q0 17 8 80q-8 43 -8 92v20q0 149 28 292q10 161 20 176q-8 30 -8 36q0 37 80 64h8z" />
    <glyph glyph-name="m" unicode="m" horiz-adv-x="983" 
d="M195 1467q109 0 228 -184q40 -79 88 -236h4q130 311 164 340q53 44 164 44h16q32 0 32 -52q0 -12 12 -104q0 -26 -8 -80l32 -392v-60q0 -17 -4 -44q12 -26 16 -52q-16 -53 -16 -80v-16q24 -156 24 -244q0 -296 -20 -296q-40 -40 -72 -40q-88 0 -156 96v144q0 26 4 52
l-8 112q4 31 4 64l-16 204l8 80v4h-4q-32 -166 -60 -200q-25 -19 -64 -32q-132 0 -132 32q-16 35 -36 160h-4v-8q4 -69 4 -80q0 -108 -20 -304q12 -48 12 -68q0 -15 -12 -96l4 -8q0 -65 -160 -76h-88q-76 0 -76 248q-4 0 -4 28q4 193 12 288q0 163 -8 320q0 22 16 176v52
q0 13 4 20l-4 20q0 256 40 256q55 12 84 12zM387 703v-12h4v12h-4z" />
    <glyph glyph-name="n" unicode="n" horiz-adv-x="846" 
d="M696 1524q64 0 64 -44q6 0 12 -88q24 -53 32 -84l-8 -188q12 -57 12 -144v-4q0 -51 -12 -80q8 -39 8 -108v-4q0 -70 -12 -104q4 -35 4 -44q0 -172 -16 -232q4 -79 4 -104q0 -14 -12 -84l4 -56q0 -111 -220 -156q-63 0 -112 84q-16 65 -80 256l-60 212h-4q-4 -40 -4 -60
v-16q8 -210 8 -232q-9 -168 -20 -184q-54 -36 -100 -36q-140 0 -140 152q12 173 12 196q-16 118 -16 160q0 13 8 56l-4 24q4 41 4 64q0 37 -8 104q20 220 32 448q-4 81 -4 112q0 100 40 100q24 12 60 12q160 0 160 -36q6 -25 52 -76q18 -33 36 -92q40 -45 40 -128
q48 -46 48 -144q32 -43 52 -204q12 -3 12 -44h4q0 29 20 228q0 104 4 120q-4 20 -4 52v24q0 21 4 36q-4 21 -4 40v52q12 89 12 116v84q0 35 72 44h20zM564 712v-12h4v12h-4z" />
    <glyph glyph-name="o" unicode="o" horiz-adv-x="714" 
d="M414 1408q162 0 216 -192q56 -135 56 -288q4 0 4 -20q0 -8 -16 -84q20 -98 20 -224v-8q0 -85 -24 -224q0 -83 -68 -188q-18 -88 -64 -88q-19 -52 -84 -52q-25 0 -100 16q-75 -16 -100 -16h-16q-103 0 -148 144q-43 80 -76 244q0 28 -4 32l8 76q-4 65 -4 116v16
q0 182 20 188q-4 8 -4 12q0 36 36 172q0 52 80 280q38 45 72 52q94 36 196 36zM370 1204q-16 -58 -36 -220v-68q0 -13 -12 -28v-16q0 -105 -8 -132q4 -27 4 -44v-40q0 -143 44 -372h4q34 48 60 200q16 119 16 240q0 62 -16 204v20q0 17 4 44q-32 129 -56 212h-4z" />
    <glyph glyph-name="p" unicode="p" horiz-adv-x="730" 
d="M304 1444q114 0 248 -124q0 -6 76 -92q12 -54 60 -204q-4 -25 -16 -48q20 -108 20 -128v-36q0 -26 -4 -80h4q-28 -206 -88 -288q-12 -44 -88 -108q-16 -60 -120 -60q-11 -57 -28 -244q-5 0 -8 -24l4 -28q0 -45 -168 -72h-24q-84 0 -84 36q-24 45 -36 192q0 13 24 140
q0 21 -4 68q4 76 4 128q-16 107 -16 228q0 9 4 16q-4 22 -4 36v56q0 16 4 16l-4 28v136q0 52 8 316q4 0 4 4h-4l4 8v44q0 44 144 80q80 4 88 4zM368 1236v-4q20 -71 24 -100l-4 -36q4 -48 4 -72l-4 -16q8 -38 28 -180l-24 -104q0 -34 20 -168v-4q0 -36 -12 -112q20 0 84 232
q10 0 12 92q-11 210 -40 276q-40 109 -84 196h-4z" />
    <glyph glyph-name="q" unicode="q" horiz-adv-x="787" 
d="M198 1565q14 0 65 -12q6 0 139 4q71 0 165 -62q75 -90 93 -174q23 -51 23 -96v-39q19 -50 27 -104l-4 -27v-47q0 -15 23 -119q-2 -47 -7 -47q19 -91 19 -131q0 -39 -4 -163q4 -52 4 -73q-12 -26 -12 -43v-15q0 -61 -15 -166q16 -9 27 -70q20 0 81 -170q11 -6 19 -50
q-4 -50 -46 -50q-14 -12 -39 -12h-11q-71 9 -93 39q-23 36 -42 92q-67 -58 -193 -58q-26 -11 -65 -11h-12q-129 0 -246 247q-20 50 -47 232v81q0 4 4 4q-11 37 -15 155q4 77 4 104q-8 39 -8 50q4 134 4 171q0 2 4 23q-8 21 -8 62q0 73 27 235q67 181 119 236zM367 1399
q-38 -107 -38 -190q3 -108 15 -143q-8 -42 -8 -73q4 -74 20 -132l-8 -61q27 -108 27 -116q-4 -49 -4 -54l12 -58q-8 -39 -8 -47q8 -46 8 -73v-4q0 -15 88 -23q8 230 8 328q0 134 -31 333v15q0 4 4 4q-46 226 -77 294h-8zM390 297v-4l35 -77h8l11 42q-29 25 -54 39z" />
    <glyph glyph-name="r" unicode="r" horiz-adv-x="717" 
d="M344 1597q140 0 184 -80q70 -69 104 -288q4 -70 4 -84q-32 -312 -56 -312q0 -15 -60 -96q-68 -56 -88 -80l-4 -8q104 -119 128 -212q0 -26 60 -136q0 -15 76 -236q8 -32 8 -68v-12q0 -55 -40 -68q-55 -16 -88 -20q-88 0 -124 108q-24 67 -80 164q-22 97 -52 148
q-12 28 -12 40h-4q0 -16 -8 -84q2 -48 8 -48q-8 -17 -8 -64v-76q0 -14 -4 -36q16 -43 16 -80q0 -45 -100 -56q-90 0 -104 36q-56 187 -56 512l-20 232l8 72q-8 53 -8 104v36q0 51 4 112q-4 16 -4 32l8 48q-8 57 -8 124q21 174 56 232q12 0 32 60q88 80 180 80q2 0 52 4z
M256 1313v-20q0 -79 20 -212v-20q0 -14 -4 -36q16 -53 16 -144l4 -16q92 80 92 320q0 205 -84 280h-4q-34 0 -40 -152zM296 369v-8h4v8h-4z" />
    <glyph glyph-name="s" unicode="s" horiz-adv-x="673" 
d="M331 1514q173 0 288 -236q16 -49 24 -192q0 -44 -120 -44q-80 17 -104 48q-16 27 -40 120q-77 100 -112 100v-28q0 -57 44 -176q129 -223 184 -376q12 -67 48 -180q20 -107 20 -112v-28q0 -52 8 -136q-12 -39 -16 -124q-37 -98 -112 -180q-25 -48 -112 -48q-23 0 -28 -4
q-150 0 -196 116q-50 62 -64 136q-28 41 -28 88v28q0 76 80 76q0 7 28 8q90 0 140 -152q27 -101 52 -120h4q12 69 16 120q-11 150 -40 228v48q-23 14 -44 116q-52 89 -64 148q-111 179 -128 296q-24 117 -24 132v44q0 9 4 16q-3 7 -8 60q26 95 88 132q97 76 212 76z" />
    <glyph glyph-name="t" unicode="t" horiz-adv-x="692" 
d="M492 1536q129 -20 208 -28q40 -47 40 -68q0 -79 -92 -112q-52 -16 -100 -16h-112q-4 -22 -4 -32q28 -122 28 -144q-4 -31 -12 -48q16 -29 24 -60l-8 -60l16 -180q-8 -40 -8 -52q12 -68 12 -84q-8 -59 -8 -88v-16q8 -157 8 -168l-4 -36q20 -63 20 -116v-8
q-12 -88 -12 -108q24 -105 24 -128q0 -52 -188 -72q-73 0 -92 32q-52 80 -52 412q-4 0 -4 32q3 48 8 48l-4 40v76q0 77 -12 132l8 68q-20 146 -32 576q-36 8 -164 24q-24 18 -24 40q8 98 96 101q160 29 292 35q0 4 12 4q9 0 16 -4q34 4 56 4h40z" />
    <glyph glyph-name="u" unicode="u" horiz-adv-x="881" 
d="M622 1482h16q81 0 100 -64q44 -99 88 -308l24 -148l-4 -56q4 -105 4 -144q0 -91 -40 -236q-14 -264 -32 -264q-53 -146 -208 -232q-128 -56 -216 -56h-4l-8 -4v4l-8 -4q-59 0 -132 80q-63 83 -120 220q-52 160 -52 376q0 63 28 624v64q0 72 56 72q45 20 92 20h24l8 4v-4
q4 0 4 4q78 0 124 -76q16 -57 16 -88q-8 -93 -8 -120q0 -23 24 -152q-4 -96 -12 -152l8 -100l-4 -8q0 -9 4 -16q-4 -52 -4 -84v-60q0 -61 16 -172h-4q8 -48 20 -88q22 21 64 236q0 26 36 208q16 80 20 352q4 0 8 48q-5 49 -8 56h4q-8 21 -8 92v100q0 55 84 76z" />
    <glyph glyph-name="v" unicode="v" horiz-adv-x="740" 
d="M78 1470h56q144 0 144 -48q27 -70 64 -268q-4 -53 -4 -88q36 -74 64 -284q4 -107 16 -192h4q32 176 32 276q16 80 56 360v28q0 201 104 212q5 4 28 4h8q72 0 72 -44v-36q-21 -104 -32 -116l4 -20v-40l-4 -8q11 0 16 -40v-32q0 -68 -24 -228v-88q0 -25 -36 -180l4 -24v-12
q-15 -127 -28 -148v-8q8 -57 8 -64q-32 -102 -40 -244q-23 -100 -56 -124q-51 -35 -208 -64h-8q-66 0 -108 104q-42 53 -52 156q-88 325 -88 488q-14 0 -32 380q-7 0 -8 48v68q0 30 -12 100q4 50 4 60q-12 45 -12 52q0 47 68 64z" />
    <glyph glyph-name="w" unicode="w" horiz-adv-x="1073" 
d="M110 1458q126 0 148 -44q41 -75 80 -360q0 -60 8 -136v-32q0 -9 -4 -16q16 -32 16 -56q-3 -56 -8 -56q12 0 20 -232q4 0 16 -104h4q40 169 68 360q0 40 140 76h32q50 0 112 -260q7 -9 28 -92h4v48q12 110 16 248q-4 14 -4 40q28 287 28 328q16 36 16 104v28q22 56 60 56
q21 4 48 4h48q33 0 40 -52q-4 -35 -4 -40q15 -38 28 -208q0 -49 -4 -120q4 -46 4 -88l-12 -72q8 -54 8 -68q-19 -69 -40 -404q-36 -112 -64 -260q-39 -100 -144 -100h-8q-39 0 -84 72q-84 0 -116 136q-12 51 -32 184q-14 0 -24 -108q-30 -47 -60 -152q-44 -72 -88 -72
q-104 -24 -136 -24q-97 0 -128 116q-36 138 -60 572q-22 213 -32 732q0 17 68 52h12z" />
    <glyph glyph-name="x" unicode="x" horiz-adv-x="752" 
d="M668 1468h36q20 -10 20 -32v-20q0 -10 -32 -68q-21 -120 -44 -120q-11 -12 -28 -108q-38 -54 -60 -184q-37 -71 -52 -128q0 -27 60 -156l36 -132q0 -37 40 -80q8 -67 28 -96q52 -226 52 -240v-48q0 -68 -48 -68q-53 -24 -88 -24h-12q-78 0 -112 48q-16 35 -40 128
q-52 119 -84 244q-6 0 -44 -108l-32 -92l4 -20v-12q0 -35 -28 -108q-80 -84 -156 -84q-60 8 -60 64v16q14 0 24 132q40 148 76 220q28 105 80 200q32 55 32 92q-36 84 -88 240q-84 229 -84 320q-4 4 -44 132q15 48 80 48q66 0 168 -56q78 -106 128 -272v-28h8q0 11 68 176
q65 187 92 192q41 32 104 32z" />
    <glyph glyph-name="y" unicode="y" horiz-adv-x="771" 
d="M119 1578q132 -16 132 -56q14 0 24 -116q76 -343 124 -516q4 -7 12 -56h4q0 24 36 180v4q0 60 4 192q-12 63 -12 104v52q0 38 4 92l-4 24q0 72 124 72h20q33 0 44 -52q32 -277 104 -592q0 -16 16 -164v-40q0 -54 -8 -88q4 -21 4 -40q-27 -296 -48 -296q-22 -94 -56 -140
q-16 -81 -52 -116q-102 -93 -132 -100q-63 -24 -76 -24l-28 4l-56 -4q-32 0 -80 40q-80 0 -108 236q-8 24 -8 104v12q0 11 8 108v44q0 63 88 76q57 16 112 16h16q21 0 28 -104q6 -21 24 -172q16 -49 16 -72q132 213 132 404q-3 92 -12 92q-77 -52 -204 -52h-12
q-147 0 -208 188q-40 81 -60 312q-4 203 -12 400q0 30 100 44z" />
    <glyph glyph-name="z" unicode="z" horiz-adv-x="598" 
d="M342 1470q60 13 161 -35q12 0 26 -62l-22 -96q4 -33 4 -37q-19 -101 -22 -174q-41 -77 -63 -177q-13 0 -33 -92q0 -20 -25 -92q0 -19 -33 -170q0 -83 -30 -129q-4 -7 -4 -19v-11q0 -58 8 -77q-22 -91 -22 -107v-30h14q97 19 122 19q152 -16 165 -30q18 -24 18 -37
q0 -73 -117 -118q-69 -44 -169 -44q-112 11 -217 15q-92 47 -95 85v11q0 57 15 99l-4 19v22q22 66 22 136q11 106 51 303q33 129 33 185q74 372 114 494q-155 22 -187 35q-51 19 -13 55q-38 25 86 58q78 7 143 7h8q25 0 66 -6z" />
    <glyph glyph-name="braceleft" unicode="{" 
 />
    <glyph glyph-name="bar" unicode="|" 
 />
    <glyph glyph-name="braceright" unicode="}" 
 />
    <glyph glyph-name="asciitilde" unicode="~" 
 />
    <glyph glyph-name="exclamdown" unicode="&#xa1;" horiz-adv-x="672" 
 />
    <glyph glyph-name="cent" unicode="&#xa2;" horiz-adv-x="602" 
d="M362 1593h8q36 0 36 -36q-36 -167 -36 -192h4q136 0 176 -44q48 -72 48 -196q-9 -216 -24 -216q-31 -28 -64 -28v4l-8 -4q-70 0 -120 52q-24 40 -24 84q4 138 4 144q-3 36 -12 36q-65 -61 -100 -252q0 -39 -28 -264v-8q8 -71 12 -84q-12 -84 -12 -120v-8q0 -13 8 -56
q100 82 100 264v8q0 37 88 52q63 0 80 -84q0 -7 24 -44q12 -28 12 -64q0 -107 -52 -216q-60 -47 -76 -80l28 -248v-20q0 -42 -140 -64h-20q-78 0 -108 116q-4 31 -8 208q-52 8 -72 32q-29 28 -52 172q-16 82 -24 308q0 369 184 536q-8 30 -8 32l12 48q-4 54 -4 80
q0 98 100 140q37 12 68 12z" />
    <glyph glyph-name="sterling" unicode="&#xa3;" 
 />
    <glyph glyph-name="currency" unicode="&#xa4;" 
 />
    <glyph glyph-name="yen" unicode="&#xa5;" horiz-adv-x="1262" 
 />
    <glyph glyph-name="brokenbar" unicode="&#xa6;" 
 />
    <glyph glyph-name="section" unicode="&#xa7;" 
 />
    <glyph glyph-name="dieresis" unicode="&#xa8;" horiz-adv-x="1024" 
 />
    <glyph glyph-name="copyright" unicode="&#xa9;" horiz-adv-x="1674" 
 />
    <glyph glyph-name="ordfeminine" unicode="&#xaa;" horiz-adv-x="648" 
 />
    <glyph glyph-name="guillemotleft" unicode="&#xab;" horiz-adv-x="944" 
 />
    <glyph glyph-name="logicalnot" unicode="&#xac;" 
 />
    <glyph glyph-name="registered" unicode="&#xae;" horiz-adv-x="1674" 
 />
    <glyph glyph-name="macron" unicode="&#xaf;" horiz-adv-x="670" 
 />
    <glyph glyph-name="degree" unicode="&#xb0;" horiz-adv-x="674" 
 />
    <glyph glyph-name="plusminus" unicode="&#xb1;" 
 />
    <glyph glyph-name="uni00B2" unicode="&#xb2;" 
 />
    <glyph glyph-name="uni00B3" unicode="&#xb3;" 
 />
    <glyph glyph-name="acute" unicode="&#xb4;" horiz-adv-x="1024" 
 />
    <glyph glyph-name="mu" unicode="&#xb5;" horiz-adv-x="1180" 
 />
    <glyph glyph-name="paragraph" unicode="&#xb6;" horiz-adv-x="1024" 
 />
    <glyph glyph-name="periodcentered" unicode="&#xb7;" horiz-adv-x="508" 
 />
    <glyph glyph-name="periodcentered" unicode="&#x2219;" horiz-adv-x="508" 
 />
    <glyph glyph-name="cedilla" unicode="&#xb8;" horiz-adv-x="1024" 
 />
    <glyph glyph-name="uni00B9" unicode="&#xb9;" 
 />
    <glyph glyph-name="ordmasculine" unicode="&#xba;" horiz-adv-x="718" 
 />
    <glyph glyph-name="guillemotright" unicode="&#xbb;" horiz-adv-x="944" 
 />
    <glyph glyph-name="onequarter" unicode="&#xbc;" horiz-adv-x="1708" 
 />
    <glyph glyph-name="onehalf" unicode="&#xbd;" horiz-adv-x="1964" 
 />
    <glyph glyph-name="threequarters" unicode="&#xbe;" horiz-adv-x="1708" 
 />
    <glyph glyph-name="questiondown" unicode="&#xbf;" horiz-adv-x="748" 
 />
    <glyph glyph-name="Agrave" unicode="&#xc0;" horiz-adv-x="1540" 
 />
    <glyph glyph-name="Aacute" unicode="&#xc1;" horiz-adv-x="1540" 
 />
    <glyph glyph-name="Acircumflex" unicode="&#xc2;" horiz-adv-x="1540" 
 />
    <glyph glyph-name="Atilde" unicode="&#xc3;" horiz-adv-x="1540" 
 />
    <glyph glyph-name="Adieresis" unicode="&#xc4;" horiz-adv-x="1540" 
 />
    <glyph glyph-name="Aring" unicode="&#xc5;" horiz-adv-x="1540" 
 />
    <glyph glyph-name="AE" unicode="&#xc6;" horiz-adv-x="2118" 
 />
    <glyph glyph-name="Ccedilla" unicode="&#xc7;" horiz-adv-x="1399" 
 />
    <glyph glyph-name="Egrave" unicode="&#xc8;" horiz-adv-x="1151" 
 />
    <glyph glyph-name="Eacute" unicode="&#xc9;" horiz-adv-x="1151" 
 />
    <glyph glyph-name="Ecircumflex" unicode="&#xca;" horiz-adv-x="1151" 
 />
    <glyph glyph-name="Edieresis" unicode="&#xcb;" horiz-adv-x="1151" 
 />
    <glyph glyph-name="Igrave" unicode="&#xcc;" horiz-adv-x="657" 
 />
    <glyph glyph-name="Iacute" unicode="&#xcd;" horiz-adv-x="657" 
 />
    <glyph glyph-name="Icircumflex" unicode="&#xce;" horiz-adv-x="657" 
 />
    <glyph glyph-name="Idieresis" unicode="&#xcf;" horiz-adv-x="657" 
 />
    <glyph glyph-name="Eth" unicode="&#xd0;" horiz-adv-x="1518" 
 />
    <glyph glyph-name="Ntilde" unicode="&#xd1;" horiz-adv-x="1554" 
 />
    <glyph glyph-name="Ograve" unicode="&#xd2;" horiz-adv-x="1614" 
 />
    <glyph glyph-name="Oacute" unicode="&#xd3;" horiz-adv-x="1614" 
 />
    <glyph glyph-name="Ocircumflex" unicode="&#xd4;" horiz-adv-x="1614" 
 />
    <glyph glyph-name="Otilde" unicode="&#xd5;" horiz-adv-x="1614" 
 />
    <glyph glyph-name="Odieresis" unicode="&#xd6;" horiz-adv-x="1614" 
 />
    <glyph glyph-name="multiply" unicode="&#xd7;" 
 />
    <glyph glyph-name="Oslash" unicode="&#xd8;" horiz-adv-x="1614" 
 />
    <glyph glyph-name="Ugrave" unicode="&#xd9;" horiz-adv-x="1501" 
 />
    <glyph glyph-name="Uacute" unicode="&#xda;" horiz-adv-x="1501" 
 />
    <glyph glyph-name="Ucircumflex" unicode="&#xdb;" horiz-adv-x="1501" 
 />
    <glyph glyph-name="Udieresis" unicode="&#xdc;" horiz-adv-x="1501" 
 />
    <glyph glyph-name="Yacute" unicode="&#xdd;" horiz-adv-x="1233" 
 />
    <glyph glyph-name="Thorn" unicode="&#xde;" horiz-adv-x="1120" 
 />
    <glyph glyph-name="germandbls" unicode="&#xdf;" horiz-adv-x="1251" 
 />
    <glyph glyph-name="agrave" unicode="&#xe0;" horiz-adv-x="922" 
 />
    <glyph glyph-name="aacute" unicode="&#xe1;" horiz-adv-x="922" 
 />
    <glyph glyph-name="acircumflex" unicode="&#xe2;" horiz-adv-x="922" 
 />
    <glyph glyph-name="atilde" unicode="&#xe3;" horiz-adv-x="922" 
 />
    <glyph glyph-name="adieresis" unicode="&#xe4;" horiz-adv-x="922" 
 />
    <glyph glyph-name="aring" unicode="&#xe5;" horiz-adv-x="922" 
 />
    <glyph glyph-name="ae" unicode="&#xe6;" horiz-adv-x="1454" 
 />
    <glyph glyph-name="ccedilla" unicode="&#xe7;" horiz-adv-x="905" 
 />
    <glyph glyph-name="egrave" unicode="&#xe8;" horiz-adv-x="909" 
 />
    <glyph glyph-name="eacute" unicode="&#xe9;" horiz-adv-x="909" 
 />
    <glyph glyph-name="ecircumflex" unicode="&#xea;" horiz-adv-x="909" 
 />
    <glyph glyph-name="edieresis" unicode="&#xeb;" horiz-adv-x="909" 
 />
    <glyph glyph-name="igrave" unicode="&#xec;" horiz-adv-x="514" 
 />
    <glyph glyph-name="iacute" unicode="&#xed;" horiz-adv-x="514" 
 />
    <glyph glyph-name="icircumflex" unicode="&#xee;" horiz-adv-x="514" 
 />
    <glyph glyph-name="idieresis" unicode="&#xef;" horiz-adv-x="514" 
 />
    <glyph glyph-name="eth" unicode="&#xf0;" horiz-adv-x="1139" 
 />
    <glyph glyph-name="ntilde" unicode="&#xf1;" horiz-adv-x="1108" 
 />
    <glyph glyph-name="ograve" unicode="&#xf2;" horiz-adv-x="1010" 
 />
    <glyph glyph-name="oacute" unicode="&#xf3;" horiz-adv-x="1010" 
 />
    <glyph glyph-name="ocircumflex" unicode="&#xf4;" horiz-adv-x="1010" 
 />
    <glyph glyph-name="otilde" unicode="&#xf5;" horiz-adv-x="1010" 
 />
    <glyph glyph-name="odieresis" unicode="&#xf6;" horiz-adv-x="1010" 
 />
    <glyph glyph-name="divide" unicode="&#xf7;" 
 />
    <glyph glyph-name="oslash" unicode="&#xf8;" horiz-adv-x="1010" 
 />
    <glyph glyph-name="ugrave" unicode="&#xf9;" horiz-adv-x="1059" 
 />
    <glyph glyph-name="uacute" unicode="&#xfa;" horiz-adv-x="1059" 
 />
    <glyph glyph-name="ucircumflex" unicode="&#xfb;" horiz-adv-x="1059" 
 />
    <glyph glyph-name="udieresis" unicode="&#xfc;" horiz-adv-x="1059" 
 />
    <glyph glyph-name="yacute" unicode="&#xfd;" horiz-adv-x="868" 
 />
    <glyph glyph-name="thorn" unicode="&#xfe;" horiz-adv-x="1010" 
 />
    <glyph glyph-name="ydieresis" unicode="&#xff;" horiz-adv-x="868" 
 />
    <glyph glyph-name="dotlessi" unicode="&#x131;" horiz-adv-x="514" 
 />
    <glyph glyph-name="circumflex" unicode="&#x2c6;" horiz-adv-x="1024" 
 />
    <glyph glyph-name="caron" unicode="&#x2c7;" horiz-adv-x="1024" 
 />
    <glyph glyph-name="uni02C9" unicode="&#x2c9;" horiz-adv-x="1024" 
 />
    <glyph glyph-name="breve" unicode="&#x2d8;" horiz-adv-x="1024" 
 />
    <glyph glyph-name="dotaccent" unicode="&#x2d9;" horiz-adv-x="1024" 
 />
    <glyph glyph-name="ring" unicode="&#x2da;" horiz-adv-x="1024" 
 />
    <glyph glyph-name="ogonek" unicode="&#x2db;" horiz-adv-x="1024" 
 />
    <glyph glyph-name="tilde" unicode="&#x2dc;" horiz-adv-x="1024" 
 />
    <glyph glyph-name="hungarumlaut" unicode="&#x2dd;" horiz-adv-x="1024" 
 />
    <glyph glyph-name="endash" unicode="&#x2013;" horiz-adv-x="1108" 
 />
    <glyph glyph-name="emdash" unicode="&#x2014;" horiz-adv-x="2048" 
 />
    <glyph glyph-name="quoteleft" unicode="&#x2018;" horiz-adv-x="323" 
d="M195 1517q54 0 70 -53q14 -73 29 -218q-4 -46 -4 -90l4 -8q-11 -36 -11 -41q11 0 22 -49q0 -62 -70 -109q-23 -10 -66 -19q-89 0 -113 60q-9 39 -22 154q-11 29 -11 98q0 10 11 117v41q0 64 40 87q59 30 121 30z" />
    <glyph glyph-name="quoteright" unicode="&#x2019;" horiz-adv-x="323" 
d="M195 1517q54 0 70 -53q14 -73 29 -218q-4 -46 -4 -90l4 -8q-11 -36 -11 -41q11 0 22 -49q0 -62 -70 -109q-23 -10 -66 -19q-89 0 -113 60q-9 39 -22 154q-11 29 -11 98q0 10 11 117v41q0 64 40 87q59 30 121 30z" />
    <glyph glyph-name="quotesinglbase" unicode="&#x201a;" horiz-adv-x="459" 
d="M167 546h12q73 0 188 -56q43 -33 52 -72q28 -64 28 -104q0 -26 -32 -140q0 -71 -64 -188q-10 -76 -40 -76h-20q-116 25 -118 99q-10 28 -18 85v24q0 43 -36 56q-50 0 -96 128q-4 35 -4 44q0 176 52 176q9 0 96 24z" />
    <glyph glyph-name="quotedblleft" unicode="&#x201c;" horiz-adv-x="579" 
d="M411 1523q119 -7 119 -27q11 -29 37 -212q-11 -78 -11 -143q7 -81 7 -97v-3q0 -82 -48 -112l-22 -4h-4q-4 0 -4 4l-29 -8q-36 11 -60 11h-25q-53 0 -64 213q19 210 19 262q-11 25 -11 54q0 24 96 62zM155 1504q85 0 101 -62q14 -36 14 -66v-61q0 -31 -3 -74
q37 -152 37 -258q-37 -66 -86 -66q-12 8 -22 8h-26q-107 4 -107 50q-10 31 -34 174v15q0 50 4 77q-4 27 -4 77v12q0 16 4 42q-11 38 -11 70q0 54 115 62h18z" />
    <glyph glyph-name="quotedblright" unicode="&#x201d;" horiz-adv-x="579" 
d="M411 1523q119 -7 119 -27q11 -29 37 -212q-11 -78 -11 -143q7 -81 7 -97v-3q0 -82 -48 -112l-22 -4h-4q-4 0 -4 4l-29 -8q-36 11 -60 11h-25q-53 0 -64 213q19 210 19 262q-11 25 -11 54q0 24 96 62zM155 1504q85 0 101 -62q14 -36 14 -66v-61q0 -31 -3 -74
q37 -152 37 -258q-37 -66 -86 -66q-12 8 -22 8h-26q-107 4 -107 50q-10 31 -34 174v15q0 50 4 77q-4 27 -4 77v12q0 16 4 42q-11 38 -11 70q0 54 115 62h18z" />
    <glyph glyph-name="quotedblbase" unicode="&#x201e;" horiz-adv-x="910" 
 />
    <glyph glyph-name="dagger" unicode="&#x2020;" 
 />
    <glyph glyph-name="daggerdbl" unicode="&#x2021;" 
 />
    <glyph glyph-name="bullet" unicode="&#x2022;" horiz-adv-x="1024" 
 />
    <glyph glyph-name="ellipsis" unicode="&#x2026;" horiz-adv-x="2048" 
 />
    <glyph glyph-name="guilsinglleft" unicode="&#x2039;" horiz-adv-x="631" 
 />
    <glyph glyph-name="guilsinglright" unicode="&#x203a;" horiz-adv-x="631" 
 />
    <glyph glyph-name="fraction" unicode="&#x2044;" horiz-adv-x="342" 
 />
    <glyph glyph-name="fraction" unicode="&#x2215;" horiz-adv-x="342" 
 />
    <glyph glyph-name="franc" unicode="&#x20a3;" 
 />
    <glyph glyph-name="lira" unicode="&#x20a4;" 
 />
    <glyph glyph-name="peseta" unicode="&#x20a7;" horiz-adv-x="2028" 
 />
    <glyph glyph-name="Euro" unicode="&#x20ac;" 
 />
    <glyph glyph-name="uni2116" unicode="&#x2116;" horiz-adv-x="2271" 
 />
    <glyph glyph-name="trademark" unicode="&#x2122;" horiz-adv-x="1497" 
 />
    <glyph glyph-name="partialdiff" unicode="&#x2202;" 
 />
    <glyph glyph-name="Delta" unicode="&#x2206;" horiz-adv-x="1081" 
 />
    <glyph glyph-name="product" unicode="&#x220f;" horiz-adv-x="1515" 
 />
    <glyph glyph-name="summation" unicode="&#x2211;" horiz-adv-x="1206" 
 />
    <glyph glyph-name="minus" unicode="&#x2212;" 
 />
    <glyph glyph-name="radical" unicode="&#x221a;" 
 />
    <glyph glyph-name="infinity" unicode="&#x221e;" 
 />
    <glyph glyph-name="integral" unicode="&#x222b;" horiz-adv-x="665" 
 />
    <glyph glyph-name="approxequal" unicode="&#x2248;" 
 />
    <glyph glyph-name="lessequal" unicode="&#x2264;" 
 />
    <glyph glyph-name="greaterequal" unicode="&#x2265;" 
 />
    <glyph glyph-name="uniF001" unicode="&#xf001;" horiz-adv-x="1073" 
 />
    <glyph glyph-name="uniF001" unicode="&#xfb01;" horiz-adv-x="1073" 
 />
    <glyph glyph-name="uniF002" unicode="&#xf002;" horiz-adv-x="1081" 
 />
    <glyph glyph-name="uniF002" unicode="&#xfb02;" horiz-adv-x="1081" 
 />
    </font>
</defs>
</svg>
